Ошибка
Загрузка...

Безграничный Бэтмен: Хаос / Batman Unlimited: Monster Mayhem (Батч Лукич) [2015, мультфильм, боевик, приключения, BDRip 720p]

Ответить на тему
 
Автор Сообщение

BZzz

Пол: Пол:Муж

Стаж: 5 лет 9 месяцев

Сообщений: 3824

Россия
Рейтинг

post 11-Авг-2015 12:25 0[+]

[Цитировать] 

Безграничный Бэтмен: Хаос / Batman Unlimited: Monster Mayhem
-




Год выпуска: 2015
Страна: США
Жанр: мультфильм, боевик, приключения
Продолжительность: 01:20:13
Перевод: Профессиональный (многоголосый закадровый)[цифровая лицензия iTunes]
Cубтитры: английские

Режиссер: Батч Лукич

В ролях: Ноэль Фишер☆Noel Fisher (Gogo Shoto, озвучка), Трой Бэйкер☆Troy Baker (The Joker, озвучка), Кари Вурер☆Kari Wuhrer (Silver Banshee, озвучка), Уилл Фридел☆Will Friedle (Nightwing, озвучка), Крис Диамантополос☆Chris Diamantopoulos (Green Arrow, озвучка), Хари Пэйтон☆Khary Payton (Cyborg, озвучка), Роджер Крэйг Смит☆Roger Craig Smith (Batman, озвучка), Юрий Ловенталь☆Yuri Lowenthal (Red Robin, озвучка), Брайан Т. Делани☆Brian T. Delaney (Scarecrow, озвучка), Фред Татаскьор☆Fred Tatasciore (Solomon Grundy, озвучка)

Описание: Команда из Бэтмена, Найтвинга, Киборга и Зеленой Стрелы противостоит Соломону Гранди, Глиноликому, Страшиле и Серебряной Банши. Возглавит шайку негодяев, конечно же, Джокер.



Качество: BDRip 720p
Формат: MKV
Видео кодек: AVC
Аудио кодек: AC3
Видео: 1280x720 (16:9), 23.976 fps, High@L4.1, 3 400 Kbps
Аудио #1: Rus AC3, 192 Kbps, 48.0 KHz, 2 ch
Аудио #2: Eng DTS, 1 510 Kbps, 48.0 KHz, 6 ch
General
Unique ID : 247241904991966448140292684933423747728 (0xBA010F0FB040470A8B42DC6A3084D290)
Complete name : Bezgranichnyj.B`etmen.Haos.2015.P.BDRip.720p.mkv
Format : Matroska
Format version : Version 4 / Version 2
File size : 2.86 GiB
Duration : 1h 20mn
Overall bit rate : 5 104 Kbps
Encoded date : UTC 2015-08-11 04:43:31
Writing application : mkvmerge v8.2.0 ('World of Adventure') 64bit
Writing library : libebml v1.3.1 + libmatroska v1.4.2
DURATION : 01:20:11.040000000
NUMBER_OF_FRAMES : 150345
NUMBER_OF_BYTES : 115464960
_STATISTICS_WRITING_APP : mkvmerge v8.2.0 ('World of Adventure') 64bit
_STATISTICS_WRITING_DATE_UTC : 2015-08-11 04:43:31
_STATISTICS_TAGS : BPS DURATION NUMBER_OF_FRAMES NUMBER_OF_BYTES

Video
ID : 1
Format : AVC
Format/Info : Advanced Video Codec
Format profile : High@L4.1
Format settings, CABAC : Yes
Format settings, ReFrames : 9 frames
Codec ID : V_MPEG4/ISO/AVC
Bit rate : 3 400 Kbps
Width : 1 280 pixels
Height : 720 pixels
Display aspect ratio : 16:9
Frame rate mode : Variable
Original frame rate : 23.976 fps
Color space : YUV
Chroma subsampling : 4:2:0
Bit depth : 8 bits
Scan type : Progressive
Bits/(Pixel*Frame) : 0.154
Writing library : x264 core 142 r2409+42 04be48a tMod [8-bit@all X86_64]
Encoding settings : cabac=1 / ref=9 / deblock=1:-1:-1 / analyse=0x3:0x133 / me=umh / subme=11 / psy=1 / fade_compensate=0.00 / psy_rd=0.40:0.00 / mixed_ref=1 / me_range=24 / chroma_me=1 / trellis=2 / 8x8dct=1 / cqm=0 / deadzone=21,11 / fast_pskip=1 / chroma_qp_offset=-2 / threads=36 / lookahead_threads=5 / sliced_threads=0 / nr=0 / decimate=1 / interlaced=0 / bluray_compat=0 / constrained_intra=0 / fgo=0 / bframes=8 / b_pyramid=2 / b_adapt=2 / b_bias=0 / direct=3 / weightb=1 / open_gop=0 / weightp=2 / keyint=240 / keyint_min=23 / scenecut=40 / intra_refresh=0 / rc_lookahead=60 / rc=2pass / mbtree=1 / bitrate=3400 / ratetol=1.0 / qcomp=0.60 / qpmin=10:10:10 / qpmax=51:51:51 / qpstep=4 / cplxblur=20.0 / qblur=0.5 / vbv_maxrate=40000 / vbv_bufsize=30000 / nal_hrd=none / filler=0 / ip_ratio=1.40 / aq=1:0.60 / aq-sensitivity=10.00 / aq-factor=1.00:1.00:1.00 / aq2=0 / aq3=0
Language : English
Default : Yes
Forced : No

Audio #1
ID : 2
Format : AC-3
Format/Info : Audio Coding 3
Mode extension : CM (complete main)
Format settings, Endianness : Big
Codec ID : A_AC3
Duration : 1h 20mn
Bit rate mode : Constant
Bit rate : 192 Kbps
Channel(s) : 2 channels
Channel positions : Front: L R
Sampling rate : 48.0 KHz
Bit depth : 16 bits
Compression mode : Lossy
Stream size : 110 MiB (4%)
Language : Russian
Default : Yes
Forced : Yes

Audio #2
ID : 3
Format : DTS
Format/Info : Digital Theater Systems
Codec ID : A_DTS
Duration : 1h 20mn
Bit rate mode : Constant
Bit rate : 1 510 Kbps
Channel(s) : 6 channels
Channel positions : Front: L C R, Side: L R, LFE
Sampling rate : 48.0 KHz
Bit depth : 24 bits
Compression mode : Lossy
Stream size : 866 MiB (30%)
Language : English
Default : No
Forced : No

Text
ID : 4
Format : UTF-8
Codec ID : S_TEXT/UTF8
Codec ID/Info : UTF-8 Plain Text
Title : SDH
Language : English
Default : No
Forced : No

Menu
00:00:00.000 : en:Chapter 01
00:07:35.872 : en:Chapter 02
00:12:23.701 : en:Chapter 03
00:21:30.247 : en:Chapter 04
00:33:22.291 : en:Chapter 05
00:40:40.646 : en:Chapter 06
00:49:40.352 : en:Chapter 07
01:00:00.888 : en:Chapter 08
01:09:33.544 : en:Chapter 09
01:17:37.319 : en:Chapter 10
01:20:11.890 : en:Chapter 11
info [Профиль]  [ЛС] 

WarIvan

Пол: Пол:Муж

Стаж: 6 лет 11 месяцев

Сообщений: 7

Рейтинг

post 11-Авг-2015 13:48 (спустя 1 час 22 минуты) [-]0[+]

[Цитировать] 

Бэтзавр? Такого мир ещё не видел. Надо глянуть =)
info [Профиль]  [ЛС] 

Big23

Стаж: 7 лет 1 месяц

Сообщений: 1012

Зимбабве
Рейтинг

post 11-Авг-2015 14:56 (спустя 1 час 8 минут) [-]3[+]

[Цитировать] 

Марвелу и ДС надо изобрести быстрый метод стирания памяти, настолько "интересны" стали их вселенные.
.
Хотя, .... Лукич.. kolob_111

_________________
везде требуются космонавты
info [Профиль]  [ЛС] 

iRandom

Пол: Пол:Муж

Стаж: 6 лет 1 месяц

Сообщений: 353

Россия
Рейтинг

post 11-Авг-2015 21:09 (спустя 6 часов) [-]0[+]

[Цитировать] 

Для детишек сойдет. Что же будет через 50 лет с Бэтманом?
info [Профиль]  [ЛС] 

post 05-Фев-2016 23:55 (спустя 5 месяцев 25 дней) [-]0[+]

Топик был перенесен из форума Новинки 2014-2015 (Web-DL, DVD, HD DVD, Blu-ray, HD Rips) в форум Мультфильмы (HD Video)

LyaKich
 
Показать сообщения:    
Ответить на тему

Текущее время: 22-Авг 17:12

Часовой пояс: GMT + 4



Вы не можете начинать темы
Вы не можете отвечать на сообщения
Вы не можете редактировать свои сообщения
Вы не можете удалять свои сообщения
Вы не можете голосовать в опросах
Вы не можете прикреплять файлы к сообщениям
Вы не можете скачивать файлы