Ошибка

Гарфилд / Garfield / Гарфилд 2: История двух кошечек / Garfield: A Tail of Two Kitties (Питер Хьюит / Peter Hewitt / Тим Хилл / Tim Hill) [2004, 2006 г., комедия, семейный, Blu-ray 1080p]

Ответить на тему
 
Автор Сообщение

Eвгений

Пол: Пол:Муж

Стаж: 6 лет 9 месяцев

Сообщений: 680

Россия
Рейтинг

post 25-Июл-2015 00:56 0[+]

[Цитировать] 

Гарфилд / Garfield

Год выпуска: 2004
Страна: США
Жанр: комедия, семейный
Продолжительность: 01:20:12
Перевод: Профессиональный (полное дублирование)
Язык субтитров: Английские, Арабские, Китайские, Иврит, Исландские, Индонезийские, Корейские, Польские, Португальские, Русские, Испанские, Талогские, Тайские, Турецкие
Режиссер:
  • Питер Хьюит / Peter Hewitt

В ролях:
  • Брекин Мейер, Дженнифер Лав Хьюитт, Стивен Тоболовски, Билл Мюррэй, Ивэн Арнольд, Марк Кристофер Лоуренс, Ванесса Кристелль, Даамен Дж. Кралл, Руфус Гиффорд, Рэнди Рейхер, Ryan McKasson, Сьюзэн Мур, Ив Брент, Билл Хоаг, Michael Monks, Мэл Родригез, Джульетт Гогли, Ben Kronen, Фабио Серафини, Джерри Хаук, Джерри Джиллз

Описание: Он циничен, ленив и вообще, он — жирный котяра. Сейчас Гарфилд — любимая кошка всей Америки, которая вскоре станет главной кинозвездой в фильме, рассчитанном на широкую аудиторию. Фильм сделан на основе газетных рисунков-комиксов.
Хозяин Гарфилда, Джон, приносит в дом милого щенка Оди, и с этого момента жизнь Гарфилда идёт наперекосяк. Он хочет только одного — чтобы пес исчез из его жизни и из его дома навсегда! Но когда внезапно щенка похищают, Гарфилд, возможно впервые в жизни, чувствует лежащую на нём ответственность. И он начинает действовать…

  • CEE - Central Eastern Europe original release!

Релиз:
Качество: Blu-ray
Формат: BDMV
Видео кодек: MPEG-4 AVC Video
Аудио кодек: DTS-HD MA,DTS, DD
Видео: 28488 kbps, 1920*1080 / 23,976 fps / 16:9 / High Profile 4.1
Аудио 1: Английский DTS-HD MA 5.1 / DTS-HD Master Audio, English, 4294 kbps, 5.1 / 48 kHz / 4294 kbps / 24-bit (DTS Core: 5.1 / 48 kHz / 1509 kbps / 24-bit)
Аудио 2: Русский DTS 5.1 (768 kbps) (Дубляж) 5.1 / 48 kHz / 768 kbps / 24-bit
Аудио 3: Китайский Dolby Digital 5.1 / 48 kHz / 448 kbps / DN -4dB
Аудио 4: Иврит Dolby Digital 5.1 / 48 kHz / 448 kbps / DN -4dB
Аудио 5: Исландский Dolby Digital 5.1 / 48 kHz / 448 kbps / DN -4dB
Аудио 6: Корейский Dolby Digital 5.1 / 48 kHz / 448 kbps / DN -4dB
Аудио 7: Польский Dolby Digital 5.1 / 48 kHz / 448 kbps / DN -4dB
Аудио 8: Португальский Dolby Digital 5.1 / 48 kHz / 448 kbps / DN -4dB
Аудио 9: Испанский Dolby Digital 5.1 / 48 kHz / 448 kbps / DN -4dB
Аудио 10: Тайский Dolby Digital 5.1 / 48 kHz / 448 kbps / DN -4dB
Аудио 11: Турецкий Dolby Digital 5.1 / 48 kHz / 448 kbps / DN -4dB
Аудио 12: Английский Dolby Digital 5.1 / 48 kHz / 224 kbps / DN -4dB
Аудио 13: Китайский Dolby Digital 5.1 / 48 kHz / 224 kbps / DN -4dB

Код:

Disc Title:
Disc Size: 33 724 769 975 bytes
Protection: AACS
BD-Java: Yes
BDInfo: 0.5.3

********************
PLAYLIST: 00800.MPLS
********************

Код:
Total   Video
Title                                                           Codec   Length  Movie Size      Disc Size       Bitrate Bitrate Main Audio Track                          Secondary Audio Track
-----                                                           ------  ------- --------------  --------------  ------- ------- ------------------                        ---------------------
00800.MPLS                                                      AVC     1:20:12 367 846 080     33 724 769 975  0,61    24,00   DTS-HD Master 5.1 4411Kbps (48kHz/24-bit)

DISC INFO:
Disc Title:
Disc Size:      33 724 769 975 bytes
Protection:     AACS
BD-Java:        Yes
BDInfo:         0.5.3
PLAYLIST REPORT:
Name:                   00800.MPLS
Length:                 1:20:12 (h:m:s)
Size:                   367 846 080 bytes
Total Bitrate:          0,61 Mbps
(*) Indicates included stream hidden by this playlist.
VIDEO:
Codec                   Bitrate             Description
-----                   -------             -----------
MPEG-4 AVC Video        24005 kbps          1080p / 23,976 fps / 16:9 / High Profile 4.1
AUDIO:
Codec                           Language        Bitrate         Description
-----                           --------        -------         -----------
DTS-HD Master Audio             English         4411 kbps       5.1 / 48 kHz / 4411 kbps / 24-bit (DTS Core: 5.1 / 48 kHz / 1509 kbps / 24-bit)
* DTS Audio                     Japanese        768 kbps        5.1 / 48 kHz / 768 kbps / 24-bit
DTS Audio                       Russian         768 kbps        5.1 / 48 kHz / 768 kbps / 24-bit
Dolby Digital Audio             Chinese         448 kbps        5.1 / 48 kHz / 448 kbps / DN -4dB
Dolby Digital Audio             Chinese         448 kbps        5.1 / 48 kHz / 448 kbps / DN -4dB
Dolby Digital Audio             Hebrew          448 kbps        5.1 / 48 kHz / 448 kbps / DN -4dB
Dolby Digital Audio             Icelandic       448 kbps        5.1 / 48 kHz / 448 kbps / DN -4dB
Dolby Digital Audio             Korean          448 kbps        5.1 / 48 kHz / 448 kbps / DN -4dB
Dolby Digital Audio             Polish          448 kbps        5.1 / 48 kHz / 448 kbps / DN -4dB
Dolby Digital Audio             Portuguese      448 kbps        5.1 / 48 kHz / 448 kbps / DN -4dB
Dolby Digital Audio             Portuguese      448 kbps        5.1 / 48 kHz / 448 kbps / DN -4dB
Dolby Digital Audio             Spanish         448 kbps        5.1 / 48 kHz / 448 kbps / DN -4dB
Dolby Digital Audio             Thai            448 kbps        5.1 / 48 kHz / 448 kbps / DN -4dB
Dolby Digital Audio             Turkish         448 kbps        5.1 / 48 kHz / 448 kbps / DN -4dB
Dolby Digital Audio             English         224 kbps        2.0 / 48 kHz / 224 kbps / DN -4dB
Dolby Digital Audio             Chinese         224 kbps        2.0 / 48 kHz / 224 kbps / DN -4dB / Dolby Surround
SUBTITLES:
Codec                           Language        Bitrate         Description
-----                           --------        -------         -----------
Presentation Graphics           English         0,000 kbps
Presentation Graphics           Arabic          0,499 kbps
Presentation Graphics           Chinese         1,920 kbps
Presentation Graphics           Chinese         1,225 kbps
Presentation Graphics           Chinese         2,084 kbps
Presentation Graphics           Chinese         44,115 kbps
Presentation Graphics           Hebrew          0,894 kbps
Presentation Graphics           Icelandic       1,556 kbps
Presentation Graphics           Indonesian      2,163 kbps
* Presentation Graphics         Japanese        1,063 kbps
* Presentation Graphics         Japanese        1,063 kbps
* Presentation Graphics         Japanese        35,136 kbps
Presentation Graphics           Korean          1,553 kbps
Presentation Graphics           Korean          34,070 kbps
Presentation Graphics           Polish          2,376 kbps
Presentation Graphics           Portuguese      0,000 kbps
Presentation Graphics           Portuguese      0,000 kbps
Presentation Graphics           Russian         1,532 kbps
Presentation Graphics           Spanish         0,000 kbps
Presentation Graphics           Tagalog         0,000 kbps
Presentation Graphics           Thai            0,000 kbps
Presentation Graphics           Turkish         1,171 kbps
FILES:
Name            Time In         Length          Size            Total Bitrate
----            -------         ------          ----            -------------
00000.M2TS      0:00:00.000     0:45:45.534     367 846 080     37 610
00052.M2TS      0:45:45.534     0:34:26.731     0               0
CHAPTERS:
Number          Time In         Length          Avg Video Rate  Max 1-Sec Rate  Max 1-Sec Time  Max 5-Sec Rate  Max 5-Sec Time  Max 10Sec Rate  Max 10Sec Time  Avg Frame Size  Max Frame Size  Max Frame Time
------          -------         ------          --------------  --------------  --------------  --------------  --------------  --------------  --------------  --------------  --------------  --------------
1               0:00:00.000     0:01:50.735     17 027 kbps     32 250 kbps     00:00:45.503    30 117 kbps     00:00:41.499    29 864 kbps     00:00:36.494    125 164 bytes   702 439 bytes   00:00:44.085
2               0:01:50.735     0:02:08.461     0 kbps          0 kbps          00:00:00.000    0 kbps          00:00:00.000    0 kbps          00:00:00.000    0 bytes         0 bytes         00:00:00.000
3               0:03:59.197     0:02:38.658     0 kbps          0 kbps          00:00:00.000    0 kbps          00:00:00.000    0 kbps          00:00:00.000    0 bytes         0 bytes         00:00:00.000
4               0:06:37.855     0:01:55.115     0 kbps          0 kbps          00:00:00.000    0 kbps          00:00:00.000    0 kbps          00:00:00.000    0 bytes         0 bytes         00:00:00.000
5               0:08:32.970     0:01:54.447     0 kbps          0 kbps          00:00:00.000    0 kbps          00:00:00.000    0 kbps          00:00:00.000    0 bytes         0 bytes         00:00:00.000
6               0:10:27.418     0:01:52.028     0 kbps          0 kbps          00:00:00.000    0 kbps          00:00:00.000    0 kbps          00:00:00.000    0 bytes         0 bytes         00:00:00.000
7               0:12:19.447     0:02:34.279     0 kbps          0 kbps          00:00:00.000    0 kbps          00:00:00.000    0 kbps          00:00:00.000    0 bytes         0 bytes         00:00:00.000
8               0:14:53.726     0:04:02.075     0 kbps          0 kbps          00:00:00.000    0 kbps          00:00:00.000    0 kbps          00:00:00.000    0 bytes         0 bytes         00:00:00.000
9               0:18:55.801     0:01:56.533     0 kbps          0 kbps          00:00:00.000    0 kbps          00:00:00.000    0 kbps          00:00:00.000    0 bytes         0 bytes         00:00:00.000
10              0:20:52.334     0:02:44.205     0 kbps          0 kbps          00:00:00.000    0 kbps          00:00:00.000    0 kbps          00:00:00.000    0 bytes         0 bytes         00:00:00.000
11              0:23:36.540     0:01:25.919     0 kbps          0 kbps          00:00:00.000    0 kbps          00:00:00.000    0 kbps          00:00:00.000    0 bytes         0 bytes         00:00:00.000
12              0:25:02.459     0:03:04.559     0 kbps          0 kbps          00:00:00.000    0 kbps          00:00:00.000    0 kbps          00:00:00.000    0 bytes         0 bytes         00:00:00.000
13              0:28:07.018     0:01:58.618     0 kbps          0 kbps          00:00:00.000    0 kbps          00:00:00.000    0 kbps          00:00:00.000    0 bytes         0 bytes         00:00:00.000
14              0:30:05.637     0:01:29.839     0 kbps          0 kbps          00:00:00.000    0 kbps          00:00:00.000    0 kbps          00:00:00.000    0 bytes         0 bytes         00:00:00.000
15              0:31:35.476     0:01:50.693     0 kbps          0 kbps          00:00:00.000    0 kbps          00:00:00.000    0 kbps          00:00:00.000    0 bytes         0 bytes         00:00:00.000
16              0:33:26.170     0:08:55.159     0 kbps          0 kbps          00:00:00.000    0 kbps          00:00:00.000    0 kbps          00:00:00.000    0 bytes         0 bytes         00:00:00.000
17              0:42:21.330     0:03:32.837     0 kbps          0 kbps          00:00:00.000    0 kbps          00:00:00.000    0 kbps          00:00:00.000    0 bytes         0 bytes         00:00:00.000
18              0:45:54.168     0:04:22.971     0 kbps          0 kbps          00:00:00.000    0 kbps          00:00:00.000    0 kbps          00:00:00.000    0 bytes         0 bytes         00:00:00.000
19              0:50:17.139     0:02:24.144     0 kbps          0 kbps          00:00:00.000    0 kbps          00:00:00.000    0 kbps          00:00:00.000    0 bytes         0 bytes         00:00:00.000
20              0:52:41.283     0:04:49.831     0 kbps          0 kbps          00:00:00.000    0 kbps          00:00:00.000    0 kbps          00:00:00.000    0 bytes         0 bytes         00:00:00.000
21              0:57:31.114     0:03:09.314     0 kbps          0 kbps          00:00:00.000    0 kbps          00:00:00.000    0 kbps          00:00:00.000    0 bytes         0 bytes         00:00:00.000
22              1:00:40.428     0:01:31.424     0 kbps          0 kbps          00:00:00.000    0 kbps          00:00:00.000    0 kbps          00:00:00.000    0 bytes         0 bytes         00:00:00.000
23              1:02:11.853     0:03:31.544     0 kbps          0 kbps          00:00:00.000    0 kbps          00:00:00.000    0 kbps          00:00:00.000    0 bytes         0 bytes         00:00:00.000
24              1:05:43.397     0:00:35.535     0 kbps          0 kbps          00:00:00.000    0 kbps          00:00:00.000    0 kbps          00:00:00.000    0 bytes         0 bytes         00:00:00.000
25              1:06:18.933     0:01:32.300     0 kbps          0 kbps          00:00:00.000    0 kbps          00:00:00.000    0 kbps          00:00:00.000    0 bytes         0 bytes         00:00:00.000
26              1:07:51.233     0:03:26.748     0 kbps          0 kbps          00:00:00.000    0 kbps          00:00:00.000    0 kbps          00:00:00.000    0 bytes         0 bytes         00:00:00.000
27              1:11:17.982     0:02:06.209     0 kbps          0 kbps          00:00:00.000    0 kbps          00:00:00.000    0 kbps          00:00:00.000    0 bytes         0 bytes         00:00:00.000
28              1:13:24.191     0:06:48.074     0 kbps          0 kbps          00:00:00.000    0 kbps          00:00:00.000    0 kbps          00:00:00.000    0 bytes         0 bytes         00:00:00.000
STREAM DIAGNOSTICS:
File            PID             Type            Codec           Language                Seconds                 Bitrate                 Bytes           Packets
----            ---             ----            -----           --------                --------------          --------------          -------------   -----
00000.M2TS      4113 (0x1011)   0x1B            AVC                                     78,495                  24 035                  236 436 246     1 286 074
00000.M2TS      4352 (0x1100)   0x86            DTS-HD MA       eng (English)           78,745                  4 411                   43 419 903      248 061
00000.M2TS      4353 (0x1101)   0x81            AC3             por (Portuguese)        78,745                  445                     4 378 207       24 432
00000.M2TS      4354 (0x1102)   0x82            DTS             jpn (Japanese)          78,745                  764                     7 516 879       44 044
00000.M2TS      4355 (0x1103)   0x81            AC3             spa (Spanish)           78,745                  445                     4 378 207       24 432
00000.M2TS      4356 (0x1104)   0x82            DTS             rus (Russian)           78,745                  764                     7 516 695       44 043
00000.M2TS      4357 (0x1105)   0x81            AC3             zho (Chinese)           78,745                  223                     2 198 239       12 267
00000.M2TS      4358 (0x1106)   0x81            AC3             zho (Chinese)           78,745                  445                     4 378 207       24 432
00000.M2TS      4359 (0x1107)   0x81            AC3             isl (Icelandic)         78,745                  445                     4 378 207       24 432
00000.M2TS      4360 (0x1108)   0x81            AC3             heb (Hebrew)            78,745                  445                     4 379 999       24 442
00000.M2TS      4361 (0x1109)   0x81            AC3             kor (Korean)            78,745                  445                     4 379 999       24 442
00000.M2TS      4362 (0x110A)   0x81            AC3             pol (Polish)            78,745                  445                     4 379 999       24 442
00000.M2TS      4363 (0x110B)   0x81            AC3             por (Portuguese)        78,745                  445                     4 379 999       24 442
00000.M2TS      4364 (0x110C)   0x81            AC3             zho (Chinese)           78,745                  445                     4 379 999       24 442
00000.M2TS      4365 (0x110D)   0x81            AC3             tha (Thai)              78,745                  445                     4 379 999       24 442
00000.M2TS      4366 (0x110E)   0x81            AC3             tur (Turkish)           78,745                  445                     4 379 999       24 442
00000.M2TS      4367 (0x110F)   0x81            AC3             eng (English)           78,745                  223                     2 199 135       12 272
00000.M2TS      4608 (0x1200)   0x90            PGS             jpn (Japanese)          78,745                  1                       10 395          63
00000.M2TS      4609 (0x1201)   0x90            PGS             eng (English)           78,745                  0                       0               0
00000.M2TS      4610 (0x1202)   0x90            PGS             por (Portuguese)        78,745                  0                       0               0
00000.M2TS      4611 (0x1203)   0x90            PGS             spa (Spanish)           78,745                  0                       0               0
00000.M2TS      4612 (0x1204)   0x90            PGS             rus (Russian)           78,745                  2                       14 981          88
00000.M2TS      4613 (0x1205)   0x90            PGS             zho (Chinese)           78,745                  2                       18 783          116
00000.M2TS      4614 (0x1206)   0x90            PGS             ara (Arabic)            78,745                  0                       4 876           33
00000.M2TS      4615 (0x1207)   0x90            PGS             zho (Chinese)           78,745                  1                       11 986          72
00000.M2TS      4616 (0x1208)   0x90            PGS             isl (Icelandic)         78,745                  2                       15 215          90
00000.M2TS      4617 (0x1209)   0x90            PGS             ind (Indonesian)        78,745                  2                       21 154          122
00000.M2TS      4618 (0x120A)   0x90            PGS             heb (Hebrew)            78,745                  1                       8 747           54
00000.M2TS      4619 (0x120B)   0x90            PGS             kor (Korean)            78,745                  2                       15 185          96
00000.M2TS      4620 (0x120C)   0x90            PGS             pol (Polish)            78,745                  2                       23 238          133
00000.M2TS      4621 (0x120D)   0x90            PGS             por (Portuguese)        78,745                  0                       0               0
00000.M2TS      4622 (0x120E)   0x90            PGS             tgl (Tagalog)           78,745                  0                       0               0
00000.M2TS      4623 (0x120F)   0x90            PGS             zho (Chinese)           78,745                  2                       20 385          124
00000.M2TS      4624 (0x1210)   0x90            PGS             tha (Thai)              78,745                  0                       0               0
00000.M2TS      4625 (0x1211)   0x90            PGS             tur (Turkish)           78,745                  1                       11 454          69
00000.M2TS      4626 (0x1212)   0x90            PGS             jpn (Japanese)          78,745                  1                       10 395          63
00000.M2TS      4627 (0x1213)   0x90            PGS             jpn (Japanese)          78,745                  35                      343 649         1 967
00000.M2TS      4628 (0x1214)   0x90            PGS             zho (Chinese)           78,745                  44                      431 475         2 467
00000.M2TS      4629 (0x1215)   0x90            PGS             kor (Korean)            78,745                  34                      333 222         1 911
00052.M2TS      4113 (0x1011)   0x1B            AVC                                     0                       0                       0               0
00052.M2TS      4352 (0x1100)   0x86            DTS-HD MA       eng (English)           0                       0                       0               0
00052.M2TS      4353 (0x1101)   0x81            AC3             por (Portuguese)        0                       0                       0               0
00052.M2TS      4354 (0x1102)   0x82            DTS             jpn (Japanese)          0                       0                       0               0
00052.M2TS      4355 (0x1103)   0x81            AC3             spa (Spanish)           0                       0                       0               0
00052.M2TS      4356 (0x1104)   0x82            DTS             rus (Russian)           0                       0                       0               0
00052.M2TS      4357 (0x1105)   0x81            AC3             zho (Chinese)           0                       0                       0               0
00052.M2TS      4358 (0x1106)   0x81            AC3             zho (Chinese)           0                       0                       0               0
00052.M2TS      4359 (0x1107)   0x81            AC3             isl (Icelandic)         0                       0                       0               0
00052.M2TS      4360 (0x1108)   0x81            AC3             heb (Hebrew)            0                       0                       0               0
00052.M2TS      4361 (0x1109)   0x81            AC3             kor (Korean)            0                       0                       0               0
00052.M2TS      4362 (0x110A)   0x81            AC3             pol (Polish)            0                       0                       0               0
00052.M2TS      4363 (0x110B)   0x81            AC3             por (Portuguese)        0                       0                       0               0
00052.M2TS      4364 (0x110C)   0x81            AC3             zho (Chinese)           0                       0                       0               0
00052.M2TS      4365 (0x110D)   0x81            AC3             tha (Thai)              0                       0                       0               0
00052.M2TS      4366 (0x110E)   0x81            AC3             tur (Turkish)           0                       0                       0               0
00052.M2TS      4367 (0x110F)   0x81            AC3             eng (English)           0                       0                       0               0
00052.M2TS      4608 (0x1200)   0x90            PGS             jpn (Japanese)          0                       0                       0               0
00052.M2TS      4609 (0x1201)   0x90            PGS             eng (English)           0                       0                       0               0
00052.M2TS      4610 (0x1202)   0x90            PGS             por (Portuguese)        0                       0                       0               0
00052.M2TS      4611 (0x1203)   0x90            PGS             spa (Spanish)           0                       0                       0               0
00052.M2TS      4612 (0x1204)   0x90            PGS             rus (Russian)           0                       0                       0               0
00052.M2TS      4613 (0x1205)   0x90            PGS             zho (Chinese)           0                       0                       0               0
00052.M2TS      4614 (0x1206)   0x90            PGS             ara (Arabic)            0                       0                       0               0
00052.M2TS      4615 (0x1207)   0x90            PGS             zho (Chinese)           0                       0                       0               0
00052.M2TS      4616 (0x1208)   0x90            PGS             isl (Icelandic)         0                       0                       0               0
00052.M2TS      4617 (0x1209)   0x90            PGS             ind (Indonesian)        0                       0                       0               0
00052.M2TS      4618 (0x120A)   0x90            PGS             heb (Hebrew)            0                       0                       0               0
00052.M2TS      4619 (0x120B)   0x90            PGS             kor (Korean)            0                       0                       0               0
00052.M2TS      4620 (0x120C)   0x90            PGS             pol (Polish)            0                       0                       0               0
00052.M2TS      4621 (0x120D)   0x90            PGS             por (Portuguese)        0                       0                       0               0
00052.M2TS      4622 (0x120E)   0x90            PGS             tgl (Tagalog)           0                       0                       0               0
00052.M2TS      4623 (0x120F)   0x90            PGS             zho (Chinese)           0                       0                       0               0
00052.M2TS      4624 (0x1210)   0x90            PGS             tha (Thai)              0                       0                       0               0
00052.M2TS      4625 (0x1211)   0x90            PGS             tur (Turkish)           0                       0                       0               0
00052.M2TS      4626 (0x1212)   0x90            PGS             jpn (Japanese)          0                       0                       0               0
00052.M2TS      4627 (0x1213)   0x90            PGS             jpn (Japanese)          0                       0                       0               0
00052.M2TS      4628 (0x1214)   0x90            PGS             zho (Chinese)           0                       0                       0               0
00052.M2TS      4629 (0x1215)   0x90            PGS             kor (Korean)            0                       0                       0               0
Аудио-комментарий Питера Хьюитта и Джона Дэйвиса
Удаленные эпизоды
Гарфилд: Вдыхая жизнь в кота
Рождение Гарфилд
Появление Гарфилд
Гарфилд: с комиксов к сценарию
Иллюстрированный технический комментарий
Возьмите караданш номер 2: Эволюция Гарфилд (2 ракурса)
Мульти-ракурсы
Сравнение: от эскизов к фильму (2 ракурса)
Теряем разум

Гарфилд 2: История двух кошечек / Garfield: A Tail of Two Kitties

Год выпуска: 2006
Страна: США, Великобритания
Жанр: комедия, семейный
Продолжительность: 01:25:48
Перевод: Профессиональный (полное дублирование)
Язык субтитров: Английские, Болгарские, Китайские, Хорватские, Эстонские, Индонезийские, Корейские, Латышские, Литовские, Португальские, Румынские, Русские, Сербские, Словацкие, Словенские, Испанские, Талогские, Тайские, Турецкие

Режиссер:
  • Тим Хилл / Tim Hill


В ролях:
  • Брекин Мейер, Дженнифер Лав Хьюитт, Билли Коннолли, Билл Мюррэй, Йен Эберкромби, Роджер Рис, Люси Дэвис, Лена Кардвэлл, Вероника Алисино, Джейн Карр

Описание: Любимец всей Америки кот Гарфилд пересекает океан с целью преподнести сюрприз своему хозяину Джону Арбаклу, отправившемуся в Лондон, чтобы сделать предложение своей возлюбленной, ветеринару Лиз Уилсон. Очутившись в Англии, Гарфилд случайно меняется местами со своим двойником — котом Принцем, принадлежащим королевской семье.

  • CEE - Central Eastern Europe original release!

Релиз:
Качество: Blu-ray
Формат: BDMV
Видео кодек: MPEG-4 AVC Video
Аудио кодек: DTS-HD Master Audio, DTS, Dolby Digital
Видео: 27909 kbps, 1920*1080 / 23,976 fps / 16:9 / High Profile 4.1
Аудио №1: Английский DTS-HD MA 5.1 / DTS-HD Master Audio, English, 3852 kbps, 5.1 / 48 kHz / 3852 kbps / 24-bit (DTS Core: 5.1 / 48 kHz / 1509 kbps / 24-bit)
Аудио №2: Японский DTS 5.1 (768 kbps) (Дубляж) 5.1 / 48 kHz / 768 kbps / 24-bit
Аудио №3: Русский DTS 5.1 (768 kbps) (Дубляж) 5.1 / 48 kHz / 768 kbps / 24-bit
Аудио №4: Болгарский Dolby Digital 5.1 / 48 kHz / 448 kbps / DN -4dB
Аудио №5: Китайский Dolby Digital 5.1 / 48 kHz / 448 kbps / DN -4dB
Аудио №6: Хорватский Dolby Digital 5.1 / 48 kHz / 448 kbps / DN -4dB
Аудио №7: Эстонский Dolby Digital 5.1 / 48 kHz / 448 kbps / DN -4dB
Аудио №8: Корейский Dolby Digital 5.1 / 48 kHz / 448 kbps / DN -4dB
Аудио №9: Литовский Dolby Digital 5.1 / 48 kHz / 448 kbps / DN -4dB
Аудио №10: Португальский Dolby Digital 5.1 / 48 kHz / 448 kbps / DN -4dB
Аудио №11: Сербский Dolby Digital 5.1 / 48 kHz / 448 kbps / DN -4dB
Аудио №12: Словацкий Dolby Digital 5.1 / 48 kHz / 448 kbps / DN -4dB
Аудио №13: Словенский Dolby Digital 5.1 / 48 kHz / 448 kbps / DN -4dB
Аудио №14: Испанский Dolby Digital 5.1 / 48 kHz / 448 kbps / DN -4dB
Аудио №15: Тайский Dolby Digital 5.1 / 48 kHz / 448 kbps / DN -4dB
Аудио №16: Турецкий Dolby Digital 5.1 / 48 kHz / 448 kbps / DN -4dB

Код:

Disc Title:
Disc Size: 29 985 846 372 bytes
Protection: AACS
BD-Java: Yes
BDInfo: 0.5.3

********************
PLAYLIST: 00400.MPLS
********************

Total   Video
Title                                                           Codec   Length  Movie Size      Disc Size       Bitrate Bitrate Main Audio Track                          Secondary Audio Track
-----                                                           ------  ------- --------------  --------------  ------- ------- ------------------                        ---------------------
00400.MPLS                                                      AVC     1:25:48 183 038 400     29 985 846 372  0,28    23,51   DTS-HD Master 5.1 4042Kbps (48kHz/24-bit)

DISC INFO:
Disc Title:
Disc Size:      29 985 846 372 bytes
Protection:     AACS
BD-Java:        Yes
BDInfo:         0.5.3
PLAYLIST REPORT:
Name:                   00400.MPLS
Length:                 1:25:48 (h:m:s)
Size:                   183 038 400 bytes
Total Bitrate:          0,28 Mbps
VIDEO:
Codec                   Bitrate             Description
-----                   -------             -----------
MPEG-4 AVC Video        23506 kbps          1080p / 23,976 fps / 16:9 / High Profile 4.1
AUDIO:
Codec                           Language        Bitrate         Description
-----                           --------        -------         -----------
DTS-HD Master Audio             English         4042 kbps       5.1 / 48 kHz / 4042 kbps / 24-bit (DTS Core: 5.1 / 48 kHz / 1509 kbps / 24-bit)
DTS Audio                       Japanese        768 kbps        5.1 / 48 kHz / 768 kbps / 24-bit
DTS Audio                       Russian         768 kbps        5.1 / 48 kHz / 768 kbps / 24-bit
Dolby Digital Audio             Bulgarian       448 kbps        5.1 / 48 kHz / 448 kbps / DN -4dB
Dolby Digital Audio             Chinese         448 kbps        5.1 / 48 kHz / 448 kbps / DN -4dB
Dolby Digital Audio             Chinese         448 kbps        5.1 / 48 kHz / 448 kbps / DN -4dB
Dolby Digital Audio             Croatian        448 kbps        5.1 / 48 kHz / 448 kbps / DN -4dB
Dolby Digital Audio             Estonian        448 kbps        5.1 / 48 kHz / 448 kbps / DN -4dB
Dolby Digital Audio             Korean          448 kbps        5.1 / 48 kHz / 448 kbps / DN -4dB
Dolby Digital Audio             Lithuanian      448 kbps        5.1 / 48 kHz / 448 kbps / DN -4dB
Dolby Digital Audio             Portuguese      448 kbps        5.1 / 48 kHz / 448 kbps / DN -4dB
Dolby Digital Audio             Serbian         448 kbps        5.1 / 48 kHz / 448 kbps / DN -4dB
Dolby Digital Audio             Slovak          448 kbps        5.1 / 48 kHz / 448 kbps / DN -4dB
Dolby Digital Audio             Slovenian       448 kbps        5.1 / 48 kHz / 448 kbps / DN -4dB
Dolby Digital Audio             Spanish         448 kbps        5.1 / 48 kHz / 448 kbps / DN -4dB
Dolby Digital Audio             Thai            448 kbps        5.1 / 48 kHz / 448 kbps / DN -4dB
Dolby Digital Audio             Turkish         448 kbps        5.1 / 48 kHz / 448 kbps / DN -4dB
SUBTITLES:
Codec                           Language        Bitrate         Description
-----                           --------        -------         -----------
Presentation Graphics           English         0,000 kbps
Presentation Graphics           Bulgarian       0,000 kbps
Presentation Graphics           Chinese         0,000 kbps
Presentation Graphics           Chinese         0,000 kbps
Presentation Graphics           Chinese         0,000 kbps
Presentation Graphics           Croatian        0,000 kbps
Presentation Graphics           Estonian        0,000 kbps
Presentation Graphics           Indonesian      0,000 kbps
Presentation Graphics           Japanese        0,000 kbps
Presentation Graphics           Japanese        0,000 kbps
Presentation Graphics           Korean          0,000 kbps
Presentation Graphics           Latvian         0,000 kbps
Presentation Graphics           Lithuanian      0,000 kbps
Presentation Graphics           Portuguese      0,000 kbps
Presentation Graphics           Romanian        0,000 kbps
Presentation Graphics           Russian         0,000 kbps
Presentation Graphics           Serbian         0,000 kbps
Presentation Graphics           Slovak          0,000 kbps
Presentation Graphics           Slovenian       0,000 kbps
Presentation Graphics           Spanish         0,000 kbps
Presentation Graphics           Tagalog         0,000 kbps
Presentation Graphics           Thai            0,000 kbps
Presentation Graphics           Turkish         0,000 kbps
FILES:
Name            Time In         Length          Size            Total Bitrate
----            -------         ------          ----            -------------
00001.M2TS      0:00:00.000     1:25:48.226     183 664 320     37 437
CHAPTERS:
Number          Time In         Length          Avg Video Rate  Max 1-Sec Rate  Max 1-Sec Time  Max 5-Sec Rate  Max 5-Sec Time  Max 10Sec Rate  Max 10Sec Time  Avg Frame Size  Max Frame Size  Max Frame Time
------          -------         ------          --------------  --------------  --------------  --------------  --------------  --------------  --------------  --------------  --------------  --------------
1               0:00:00.000     0:01:48.316     8 603 kbps      30 748 kbps     00:00:23.773    30 085 kbps     00:00:34.451    29 846 kbps     00:00:29.446    123 003 bytes   458 197 bytes   00:00:39.330
2               0:01:48.316     0:03:29.459     0 kbps          0 kbps          00:00:00.000    0 kbps          00:00:00.000    0 kbps          00:00:00.000    0 bytes         0 bytes         00:00:00.000
3               0:05:17.775     0:02:12.340     0 kbps          0 kbps          00:00:00.000    0 kbps          00:00:00.000    0 kbps          00:00:00.000    0 bytes         0 bytes         00:00:00.000
4               0:07:30.116     0:02:01.663     0 kbps          0 kbps          00:00:00.000    0 kbps          00:00:00.000    0 kbps          00:00:00.000    0 bytes         0 bytes         00:00:00.000
5               0:09:31.779     0:04:44.575     0 kbps          0 kbps          00:00:00.000    0 kbps          00:00:00.000    0 kbps          00:00:00.000    0 bytes         0 bytes         00:00:00.000
6               0:14:16.355     0:01:08.151     0 kbps          0 kbps          00:00:00.000    0 kbps          00:00:00.000    0 kbps          00:00:00.000    0 bytes         0 bytes         00:00:00.000
7               0:15:24.506     0:02:50.837     0 kbps          0 kbps          00:00:00.000    0 kbps          00:00:00.000    0 kbps          00:00:00.000    0 bytes         0 bytes         00:00:00.000
8               0:18:15.344     0:03:43.139     0 kbps          0 kbps          00:00:00.000    0 kbps          00:00:00.000    0 kbps          00:00:00.000    0 bytes         0 bytes         00:00:00.000
9               0:21:58.483     0:02:18.054     0 kbps          0 kbps          00:00:00.000    0 kbps          00:00:00.000    0 kbps          00:00:00.000    0 bytes         0 bytes         00:00:00.000
10              0:24:16.538     0:02:45.456     0 kbps          0 kbps          00:00:00.000    0 kbps          00:00:00.000    0 kbps          00:00:00.000    0 bytes         0 bytes         00:00:00.000
11              0:27:01.995     0:02:11.256     0 kbps          0 kbps          00:00:00.000    0 kbps          00:00:00.000    0 kbps          00:00:00.000    0 bytes         0 bytes         00:00:00.000
12              0:29:13.251     0:04:04.494     0 kbps          0 kbps          00:00:00.000    0 kbps          00:00:00.000    0 kbps          00:00:00.000    0 bytes         0 bytes         00:00:00.000
13              0:33:17.745     0:02:30.150     0 kbps          0 kbps          00:00:00.000    0 kbps          00:00:00.000    0 kbps          00:00:00.000    0 bytes         0 bytes         00:00:00.000
14              0:35:47.895     0:01:09.152     0 kbps          0 kbps          00:00:00.000    0 kbps          00:00:00.000    0 kbps          00:00:00.000    0 bytes         0 bytes         00:00:00.000
15              0:36:57.048     0:02:48.168     0 kbps          0 kbps          00:00:00.000    0 kbps          00:00:00.000    0 kbps          00:00:00.000    0 bytes         0 bytes         00:00:00.000
16              0:39:45.216     0:01:46.397     0 kbps          0 kbps          00:00:00.000    0 kbps          00:00:00.000    0 kbps          00:00:00.000    0 bytes         0 bytes         00:00:00.000
17              0:41:31.614     0:02:59.679     0 kbps          0 kbps          00:00:00.000    0 kbps          00:00:00.000    0 kbps          00:00:00.000    0 bytes         0 bytes         00:00:00.000
18              0:44:31.293     0:05:44.302     0 kbps          0 kbps          00:00:00.000    0 kbps          00:00:00.000    0 kbps          00:00:00.000    0 bytes         0 bytes         00:00:00.000
19              0:50:15.595     0:02:11.130     0 kbps          0 kbps          00:00:00.000    0 kbps          00:00:00.000    0 kbps          00:00:00.000    0 bytes         0 bytes         00:00:00.000
20              0:52:26.726     0:05:07.557     0 kbps          0 kbps          00:00:00.000    0 kbps          00:00:00.000    0 kbps          00:00:00.000    0 bytes         0 bytes         00:00:00.000
21              0:57:34.284     0:02:13.716     0 kbps          0 kbps          00:00:00.000    0 kbps          00:00:00.000    0 kbps          00:00:00.000    0 bytes         0 bytes         00:00:00.000
22              0:59:48.001     0:04:05.078     0 kbps          0 kbps          00:00:00.000    0 kbps          00:00:00.000    0 kbps          00:00:00.000    0 bytes         0 bytes         00:00:00.000
23              1:03:53.079     0:01:06.274     0 kbps          0 kbps          00:00:00.000    0 kbps          00:00:00.000    0 kbps          00:00:00.000    0 bytes         0 bytes         00:00:00.000
24              1:04:59.353     0:02:43.997     0 kbps          0 kbps          00:00:00.000    0 kbps          00:00:00.000    0 kbps          00:00:00.000    0 bytes         0 bytes         00:00:00.000
25              1:07:43.350     0:07:26.487     0 kbps          0 kbps          00:00:00.000    0 kbps          00:00:00.000    0 kbps          00:00:00.000    0 bytes         0 bytes         00:00:00.000
26              1:15:09.838     0:03:29.250     0 kbps          0 kbps          00:00:00.000    0 kbps          00:00:00.000    0 kbps          00:00:00.000    0 bytes         0 bytes         00:00:00.000
27              1:18:39.089     0:01:44.562     0 kbps          0 kbps          00:00:00.000    0 kbps          00:00:00.000    0 kbps          00:00:00.000    0 bytes         0 bytes         00:00:00.000
28              1:20:23.652     0:05:24.574     0 kbps          0 kbps          00:00:00.000    0 kbps          00:00:00.000    0 kbps          00:00:00.000    0 bytes         0 bytes         00:00:00.000
STREAM DIAGNOSTICS:
File            PID             Type            Codec           Language                Seconds                 Bitrate                 Bytes           Packets
----            ---             ----            -----           --------                --------------          --------------          -------------   -----
00001.M2TS      4113 (0x1011)   0x1B            AVC                                     39,456                  23 618                  116 663 481     634 586
00001.M2TS      4352 (0x1100)   0x86            DTS-HD MA       eng (English)           39,456                  4 054                   19 996 007      114 715
00001.M2TS      4353 (0x1101)   0x82            DTS             jpn (Japanese)          39,456                  761                     3 754 151       21 997
00001.M2TS      4354 (0x1102)   0x81            AC3             spa (Spanish)           39,456                  443                     2 183 007       12 182
00001.M2TS      4355 (0x1103)   0x82            DTS             rus (Russian)           39,456                  761                     3 754 151       21 997
00001.M2TS      4356 (0x1104)   0x81            AC3             est (Estonian)          39,456                  443                     2 183 007       12 182
00001.M2TS      4357 (0x1105)   0x81            AC3             lit (Lithuanian)        39,456                  443                     2 183 007       12 182
00001.M2TS      4358 (0x1106)   0x81            AC3             bul (Bulgarian)         39,456                  443                     2 183 007       12 182
00001.M2TS      4359 (0x1107)   0x81            AC3             hrv (Croatian)          39,456                  443                     2 183 007       12 182
00001.M2TS      4360 (0x1108)   0x81            AC3             zho (Chinese)           39,456                  443                     2 183 007       12 182
00001.M2TS      4361 (0x1109)   0x81            AC3             kor (Korean)            39,456                  443                     2 183 007       12 182
00001.M2TS      4362 (0x110A)   0x81            AC3             srp (Serbian)           39,456                  443                     2 183 007       12 182
00001.M2TS      4363 (0x110B)   0x81            AC3             slv (Slovenian)         39,456                  443                     2 183 007       12 182
00001.M2TS      4364 (0x110C)   0x81            AC3             slk (Slovak)            39,456                  443                     2 183 007       12 182
00001.M2TS      4365 (0x110D)   0x81            AC3             zho (Chinese)           39,456                  443                     2 183 007       12 182
00001.M2TS      4366 (0x110E)   0x81            AC3             tha (Thai)              39,456                  443                     2 183 007       12 182
00001.M2TS      4367 (0x110F)   0x81            AC3             por (Portuguese)        39,456                  443                     2 183 007       12 182
00001.M2TS      4368 (0x1110)   0x81            AC3             tur (Turkish)           39,456                  443                     2 183 007       12 182
00001.M2TS      4608 (0x1200)   0x90            PGS             jpn (Japanese)          39,456                  0                       0               0
00001.M2TS      4609 (0x1201)   0x90            PGS             eng (English)           39,456                  0                       0               0
00001.M2TS      4610 (0x1202)   0x90            PGS             por (Portuguese)        39,456                  0                       0               0
00001.M2TS      4611 (0x1203)   0x90            PGS             spa (Spanish)           39,456                  0                       0               0
00001.M2TS      4612 (0x1204)   0x90            PGS             rus (Russian)           39,456                  0                       0               0
00001.M2TS      4613 (0x1205)   0x90            PGS             est (Estonian)          39,456                  2                       11 248          65
00001.M2TS      4614 (0x1206)   0x90            PGS             lav (Latvian)           39,456                  0                       0               0
00001.M2TS      4615 (0x1207)   0x90            PGS             lit (Lithuanian)        39,456                  0                       0               0
00001.M2TS      4616 (0x1208)   0x90            PGS             bul (Bulgarian)         39,456                  4                       19 537          110
00001.M2TS      4617 (0x1209)   0x90            PGS             zho (Chinese)           39,456                  0                       0               0
00001.M2TS      4618 (0x120A)   0x90            PGS             hrv (Croatian)          39,456                  3                       13 081          75
00001.M2TS      4619 (0x120B)   0x90            PGS             zho (Chinese)           39,456                  0                       0               0
00001.M2TS      4620 (0x120C)   0x90            PGS             ind (Indonesian)        39,456                  0                       0               0
00001.M2TS      4621 (0x120D)   0x90            PGS             kor (Korean)            39,456                  0                       0               0
00001.M2TS      4622 (0x120E)   0x90            PGS             tgl (Tagalog)           39,456                  0                       0               0
00001.M2TS      4623 (0x120F)   0x90            PGS             ron (Romanian)          39,456                  0                       0               0
00001.M2TS      4624 (0x1210)   0x90            PGS             srp (Serbian)           39,456                  0                       0               0
00001.M2TS      4625 (0x1211)   0x90            PGS             slv (Slovenian)         39,456                  3                       15 218          87
00001.M2TS      4626 (0x1212)   0x90            PGS             slk (Slovak)            39,456                  3                       16 796          95
00001.M2TS      4627 (0x1213)   0x90            PGS             zho (Chinese)           39,456                  0                       0               0
00001.M2TS      4628 (0x1214)   0x90            PGS             tha (Thai)              39,456                  0                       0               0
00001.M2TS      4629 (0x1215)   0x90            PGS             tur (Turkish)           39,456                  0                       0               0
00001.M2TS      4630 (0x1216)   0x90            PGS             jpn (Japanese)          39,456                  0                       0               0
Девять жизней ГАРФИЛД
Видеоклип "Come and Get It"
В городе с ГАРФИЛД
Работая с Hot Dogs и Cool Kitties
Ручка и чернила: Создавая комиксы о ГАРФИЛД
Три рисунка с сегментами Джима Дэйвида
info [Профиль]  [ЛС] 

Doctor Net

Пол: Пол:Муж

Стаж: 7 лет 5 месяцев

Сообщений: 828

Россия
Рейтинг

post 25-Июл-2015 05:27 (спустя 4 часа) [-]-1[+]

[Цитировать] 

          
info [Профиль]  [ЛС] 

post 25-Сен-2015 08:02 (спустя 2 месяца) [-]0[+]

Топик был перенесен из форума Зарубежное кино | HD DVD и Blu-ray в форум Зерубежное видео от R.G. TNclub

L
 

post 25-Сен-2015 08:22 (спустя 2 месяца) [-]0[+]

Топик был перенесен из форума Зерубежное видео от R.G. TNclub в форум Зарубежное кино | HD DVD и Blu-ray

L
 
Показать сообщения:    
Ответить на тему

Текущее время: 03-Дек 21:48

Часовой пояс: GMT + 4



Вы не можете начинать темы
Вы не можете отвечать на сообщения
Вы не можете редактировать свои сообщения
Вы не можете удалять свои сообщения
Вы не можете голосовать в опросах
Вы не можете прикреплять файлы к сообщениям
Вы не можете скачивать файлы