Ошибка

(Alco-jazz) Billy's Band - Дискография - 2003-2015, FLAC (image+.cue)+cover, lossless

Ответить на тему
 
Автор Сообщение

The Royal

Пол: Пол:Муж

Стаж: 6 лет 11 месяцев

Сообщений: 652

Россия
Рейтинг

post 07-Июл-2015 04:39 0[+]

[Цитировать] 

pic="http://i70.fastpic.ru/big/2015/0707/37/d8a3dbd7f23807a638add98532f74b37.jpg"
Billy's Band

Жанр: Alco-jazz
Год издания данного носителя: 2003-2015
Страна-производитель носителя: Россия
Аудио кодек: FLAC
Тип рипа: image+.cue
Битрейт аудио: lossless
Продолжительность: 14:53:17
Полиграфия: Присутствует
01. Raindogs (5:21)
02. Немного смерти, немного любви (4:49)
03. Открытка от... (6:04)
04. Temptation (2:46)
05. Кафе 'Последний путь' (6:05)
06. Все хорошо (5:20)
07. Уличный вальс (2:47)
08. Straight to the top (4:36)
09. 200 см3 'Агдама' (5:01)
10. Chocolate Jesus (5:42)
11. На его месте должен был быть я (3:09)
12. Jesus gonna be here (5:29)
13. Бильярд (3:48)
14. Выпей вина (4:37)
15. Муз Замбела (5:17)
16. Desperados (7:08)
Exact Audio Copy V1.0 beta 3 from 29. August 2011 

EAC extraction logfile from 28. November 2012, 19:22

Billy's band / Открытка от...

Used drive : ASUS DRW-22B3S Adapter: 0 ID: 0

Read mode : Secure
Utilize accurate stream : Yes
Defeat audio cache : Yes
Make use of C2 pointers : No

Read offset correction : 6
Overread into Lead-In and Lead-Out : No
Fill up missing offset samples with silence : Yes
Delete leading and trailing silent blocks : No
Null samples used in CRC calculations : Yes
Used interface : Installed external ASPI interface

Used output format : User Defined Encoder
Selected bitrate : 768 kBit/s
Quality : High
Add ID3 tag : No
Command line compressor : C:\Program Files\Exact Audio Copy\FLAC\FLAC.EXE
Additional command line options : -6 -V -T "ARTIST=%artist%" -T "TITLE=%title%" -T "ALBUM=%albumtitle%" -T "DATE=%year%" -T "TRACKNUMBER=%tracknr%" -T "GENRE=%genre%" -T "COMMENT=%comment%" -T "BAND=%albuminterpret%" -T "COMPOSER=%composer%" %haslyrics%--tag-from-file=LYRICS="%lyricsfile%"%haslyrics% -T "DISCNUMBER=%cdnumber%" -T "TOTALDISCS=%totalcds%" -T "TOTALTRACKS=%numtracks%" %hascover%--picture="%coverfile%"%hascover% %source% -o %dest%

TOC of the extracted CD

Track | Start | Length | Start sector | End sector
---------------------------------------------------------
1 | 0:00.00 | 5:21.37 | 0 | 24111
2 | 5:21.37 | 4:49.06 | 24112 | 45792
3 | 10:10.43 | 6:04.26 | 45793 | 73118
4 | 16:14.69 | 2:46.20 | 73119 | 85588
5 | 19:01.14 | 6:05.22 | 85589 | 112985
6 | 25:06.36 | 5:19.49 | 112986 | 136959
7 | 30:26.10 | 2:47.22 | 136960 | 149506
8 | 33:13.32 | 4:36.06 | 149507 | 170212
9 | 37:49.38 | 5:00.54 | 170213 | 192766
10 | 42:50.17 | 5:42.12 | 192767 | 218428
11 | 48:32.29 | 3:08.48 | 218429 | 232576
12 | 51:41.02 | 5:28.49 | 232577 | 257225
13 | 57:09.51 | 3:48.32 | 257226 | 274357
14 | 60:58.08 | 4:37.22 | 274358 | 295154
15 | 65:35.30 | 5:17.18 | 295155 | 318947
16 | 70:52.48 | 7:07.43 | 318948 | 351015

Range status and errors

Selected range

Filename H:\! Мастерская\Billy's band (flac)\2003 - Открытка от\Billy's band - Открытка от....wav

Peak level 96.6 %
Extraction speed 6.6 X
Range quality 99.9 %
Test CRC 76026754
Copy CRC 76026754
Copy OK

No errors occurred

AccurateRip summary
Track 1 accurately ripped (confidence 2) [52D271DE] (AR v1)
Track 2 accurately ripped (confidence 2) [DB606C0F] (AR v1)
Track 3 accurately ripped (confidence 2) [B80C0CC8] (AR v1)
Track 4 accurately ripped (confidence 2) [6DC488B8] (AR v1)
Track 5 accurately ripped (confidence 2) [3261307E] (AR v1)
Track 6 accurately ripped (confidence 2) [475CDBC2] (AR v1)
Track 7 accurately ripped (confidence 2) [D602E03C] (AR v1)
Track 8 accurately ripped (confidence 2) [308A44A0] (AR v1)
Track 9 accurately ripped (confidence 2) [5A09B2A9] (AR v1)
Track 10 accurately ripped (confidence 3) [CBFC2E87] (AR v1)
Track 11 accurately ripped (confidence 2) [6132872B] (AR v1)
Track 12 accurately ripped (confidence 3) [3A4BE0E1] (AR v1)
Track 13 accurately ripped (confidence 2) [72835227] (AR v1)
Track 14 accurately ripped (confidence 2) [636AADBB] (AR v1)
Track 15 accurately ripped (confidence 2) [69CA387C] (AR v1)
Track 16 cannot be verified as accurate (confidence 3) [A81CCEDF], AccurateRip returned [D124765F] (AR v2)
15 track(s) accurately ripped
1 track(s) could not be verified as accurate

Some tracks could not be verified as accurate

End of status report

---- CUETools DB Plugin V2.1.3

[CTDB TOCID: D0bsS1GuT9sWa5ysP8ZlKMp3OFQ-] disk not present in database, Submit result: D0bsS1GuT9sWa5ysP8ZlKMp3OFQ- has been uploaded

==== Log checksum 7D1CCD37D4E19BB1625B0F6FA52554095DDE82AD52773BE3F6857DA7758AA966 ====
REM GENRE Alco-jazz 
REM DATE 2003
REM DISCID DD124810
REM COMMENT "ExactAudioCopy v1.0b3"
PERFORMER "Billy's band"
TITLE "Открытка от..."
FILE "Billy's band - Открытка от....flac" WAVE
TRACK 01 AUDIO
TITLE "Raindogs"
PERFORMER "Billy's band"
FLAGS DCP
INDEX 01 00:00:00
TRACK 02 AUDIO
TITLE "Немного смерти, немного любви"
PERFORMER "Billy's band"
FLAGS DCP
INDEX 01 05:21:37
TRACK 03 AUDIO
TITLE "Открытка от..."
PERFORMER "Billy's band"
FLAGS DCP
INDEX 01 10:10:43
TRACK 04 AUDIO
TITLE "Temptation"
PERFORMER "Billy's band"
FLAGS DCP
INDEX 01 16:14:69
TRACK 05 AUDIO
TITLE "Кафе 'Последний путь'"
PERFORMER "Billy's band"
FLAGS DCP
INDEX 01 19:01:14
TRACK 06 AUDIO
TITLE "Все хорошо"
PERFORMER "Billy's band"
FLAGS DCP
INDEX 01 25:06:36
TRACK 07 AUDIO
TITLE "Уличный вальс"
PERFORMER "Billy's band"
FLAGS DCP
INDEX 01 30:26:10
TRACK 08 AUDIO
TITLE "Straight to the top"
PERFORMER "Billy's band"
FLAGS DCP
INDEX 01 33:13:32
TRACK 09 AUDIO
TITLE "200 см3 'Агдама'"
PERFORMER "Billy's band"
FLAGS DCP
INDEX 01 37:49:38
TRACK 10 AUDIO
TITLE "Chocolate Jesus"
PERFORMER "Billy's band"
FLAGS DCP
INDEX 01 42:50:17
TRACK 11 AUDIO
TITLE "На его месте должен был быть я"
PERFORMER "Billy's band"
FLAGS DCP
INDEX 01 48:32:29
TRACK 12 AUDIO
TITLE "Jesus gonna be here"
PERFORMER "Billy's band"
FLAGS DCP
INDEX 01 51:41:02
TRACK 13 AUDIO
TITLE "Бильярд"
PERFORMER "Billy's band"
FLAGS DCP
INDEX 01 57:09:51
TRACK 14 AUDIO
TITLE "Выпей вина"
PERFORMER "Billy's band"
FLAGS DCP
INDEX 01 60:58:08
TRACK 15 AUDIO
TITLE "Муз Замбела"
PERFORMER "Billy's band"
FLAGS DCP
INDEX 01 65:35:30
TRACK 16 AUDIO
TITLE "Desperados"
PERFORMER "Billy's band"
FLAGS DCP
INDEX 01 70:52:48
01. Уличный вальс (2:48)
02. Коктейль (4:12)
03. Damned (2:45)
04. Ночь в 'Пурге' (4:07)
05. Парижские сезоны (оригинальная версия) (2:37)
06. Дура (2:24)
07. Эдвард (2:56)
08. 200 кубиков 'Агдама' (4:28)
09. Военное танго (1:07)
10. Печальный фильм (1:47)
11. Desperados (2:57)
12. Парижские сезоны (железнодорожная версия) (0:51)
13. Выпей вина (4:34)
14. Райончик (2:46)
Exact Audio Copy V1.0 beta 3 from 29. August 2011 

EAC extraction logfile from 28. November 2012, 20:14

Billy's band / Парижские сезоны

Used drive : ASUS DRW-22B3S Adapter: 0 ID: 0

Read mode : Secure
Utilize accurate stream : Yes
Defeat audio cache : Yes
Make use of C2 pointers : No

Read offset correction : 6
Overread into Lead-In and Lead-Out : No
Fill up missing offset samples with silence : Yes
Delete leading and trailing silent blocks : No
Null samples used in CRC calculations : Yes
Used interface : Installed external ASPI interface

Used output format : User Defined Encoder
Selected bitrate : 768 kBit/s
Quality : High
Add ID3 tag : No
Command line compressor : C:\Program Files\Exact Audio Copy\FLAC\FLAC.EXE
Additional command line options : -6 -V -T "ARTIST=%artist%" -T "TITLE=%title%" -T "ALBUM=%albumtitle%" -T "DATE=%year%" -T "TRACKNUMBER=%tracknr%" -T "GENRE=%genre%" -T "COMMENT=%comment%" -T "BAND=%albuminterpret%" -T "COMPOSER=%composer%" %haslyrics%--tag-from-file=LYRICS="%lyricsfile%"%haslyrics% -T "DISCNUMBER=%cdnumber%" -T "TOTALDISCS=%totalcds%" -T "TOTALTRACKS=%numtracks%" %hascover%--picture="%coverfile%"%hascover% %source% -o %dest%

TOC of the extracted CD

Track | Start | Length | Start sector | End sector
---------------------------------------------------------
1 | 0:00.00 | 2:47.57 | 0 | 12581
2 | 2:47.57 | 4:11.57 | 12582 | 31463
3 | 6:59.39 | 2:45.24 | 31464 | 43862
4 | 9:44.63 | 4:07.00 | 43863 | 62387
5 | 13:51.63 | 2:36.48 | 62388 | 74135
6 | 16:28.36 | 2:24.16 | 74136 | 84951
7 | 18:52.52 | 2:56.24 | 84952 | 98175
8 | 21:49.01 | 4:27.41 | 98176 | 118241
9 | 26:16.42 | 1:07.23 | 118242 | 123289
10 | 27:23.65 | 1:47.36 | 123290 | 131350
11 | 29:11.26 | 2:56.52 | 131351 | 144602
12 | 32:08.03 | 0:51.31 | 144603 | 148458
13 | 32:59.34 | 4:33.60 | 148459 | 168993
14 | 37:33.19 | 2:46.10 | 168994 | 181453

Range status and errors

Selected range

Filename H:\! Мастерская\Billy's band (flac)\2003 - Парижские сезоны\Billy's band - Парижские сезоны.wav

Peak level 98.8 %
Extraction speed 3.0 X
Range quality 100.0 %
Test CRC 34FAD1E7
Copy CRC 34FAD1E7
Copy OK

No errors occurred

AccurateRip summary
Track 1 accurately ripped (confidence 2) [ED23B839] (AR v1)
Track 2 accurately ripped (confidence 2) [562C9294] (AR v1)
Track 3 accurately ripped (confidence 2) [0D7E959A] (AR v1)
Track 4 accurately ripped (confidence 2) [5B4B4BBE] (AR v1)
Track 5 accurately ripped (confidence 2) [854AAEF1] (AR v1)
Track 6 accurately ripped (confidence 2) [774B3045] (AR v1)
Track 7 accurately ripped (confidence 2) [665D1302] (AR v1)
Track 8 accurately ripped (confidence 2) [D22D894B] (AR v1)
Track 9 accurately ripped (confidence 2) [9EF78111] (AR v1)
Track 10 accurately ripped (confidence 2) [D9DE9E03] (AR v1)
Track 11 accurately ripped (confidence 2) [0A31CC1D] (AR v1)
Track 12 accurately ripped (confidence 2) [1B60F337] (AR v1)
Track 13 accurately ripped (confidence 2) [E5EBDA34] (AR v1)
Track 14 accurately ripped (confidence 2) [590B379C] (AR v1)
All tracks accurately ripped

End of status report

---- CUETools DB Plugin V2.1.3

[CTDB TOCID: hQxKagIaTD39r8RocCyBD9Oqr2E-] found, Submit result: hQxKagIaTD39r8RocCyBD9Oqr2E- has been confirmed
[6db9cca7] (5/5) Accurately ripped

==== Log checksum 5C27CDD8B198479C41DE34AB76A4EBEFF73D33C941622053C527D82DEA1C94BA ====
REM GENRE Alco-jazz 
REM DATE 2002
REM DISCID BE09730E
REM COMMENT "ExactAudioCopy v1.0b3"
PERFORMER "Billy's band"
TITLE "Парижские сезоны"
FILE "Billy's band - Парижские сезоны.flac" WAVE
TRACK 01 AUDIO
TITLE "Уличный вальс"
PERFORMER "Billy's band"
INDEX 01 00:00:00
TRACK 02 AUDIO
TITLE "Коктейль"
PERFORMER "Billy's band"
INDEX 01 02:47:57
TRACK 03 AUDIO
TITLE "Damned"
PERFORMER "Billy's band"
INDEX 01 06:59:39
TRACK 04 AUDIO
TITLE "Ночь в 'Пурге'"
PERFORMER "Billy's band"
INDEX 01 09:44:63
TRACK 05 AUDIO
TITLE "Парижские сезоны (оригинальная версия)"
PERFORMER "Billy's band"
INDEX 01 13:51:63
TRACK 06 AUDIO
TITLE "Дура"
PERFORMER "Billy's band"
INDEX 01 16:28:36
TRACK 07 AUDIO
TITLE "Эдвард"
PERFORMER "Billy's band"
INDEX 01 18:52:52
TRACK 08 AUDIO
TITLE "200 кубиков 'Агдама'"
PERFORMER "Billy's band"
INDEX 01 21:49:01
TRACK 09 AUDIO
TITLE "Военное танго"
PERFORMER "Billy's band"
INDEX 01 26:16:42
TRACK 10 AUDIO
TITLE "Печальный фильм"
PERFORMER "Billy's band"
INDEX 01 27:23:65
TRACK 11 AUDIO
TITLE "Desperados"
PERFORMER "Billy's band"
INDEX 01 29:11:26
TRACK 12 AUDIO
TITLE "Парижские сезоны (железнодорожная версия)"
PERFORMER "Billy's band"
INDEX 01 32:08:03
TRACK 13 AUDIO
TITLE "Выпей вина"
PERFORMER "Billy's band"
INDEX 01 32:59:34
TRACK 14 AUDIO
TITLE "Райончик"
PERFORMER "Billy's band"
INDEX 01 37:33:19
01. Немного Смерти Немного Любви (3:35)
02. Кафе "Последний Путь" (3:58)
03. Открытка От... (5:50)
04. На Его Месте Должен Быть Я (3:30)
05. Последний День Карлоса (2:33)
06. Дорожная (Интро) (1:05)
07. Дорожная (5:58)
08. Билльярд (3:15)
09. Все Хорошо (4:09)
10. Никогда Не Разговаривай С Мертвецами (3:55)
11. Другая Сторона Дороги (1:52)
12. Муз Замбела (4:10)
13. Поезд В Огне (3:35)
Exact Audio Copy V0.99 prebeta 4 from 23. January 2008 

Отчёт EAC об извлечении, выполненном 28. августа 2008, 17:48

Billy's Band / Немного Смерти Немного Любви

Дисковод: _NEC DVD_RW ND-4571A Adapter: 0 ID: 0

Режим чтения : Достоверность
Использование точного потока : Да
Отключение кэша аудио : Да
Использование указателей C2 : Нет

Коррекция смещения при чтении : 48
Способность читать области Lead-in и Lead-out : Нет
Заполнение пропущенных сэмплов тишиной : Да
Удаление блоков с тишиной в начале и конце : Нет
При вычислениях CRC использовались нулевые сэмплы : Да
Интерфейс : Встроенный Win32-интерфейс для Win NT/2000

Выходной формат : Внутренние WAV-операции
Формат сэмплов : 44.100 Гц; 16 бит; стерео

TOC извлечённого CD

Трек | Старт | Длительность | Начальный сектор | Конечный сектор
---------------------------------------------------------------------
1 | 0:00.00 | 3:34.62 | 0 | 16111
2 | 3:34.62 | 3:58.12 | 16112 | 33973
3 | 7:32.74 | 5:49.57 | 33974 | 60205
4 | 13:22.56 | 3:29.54 | 60206 | 75934
5 | 16:52.35 | 2:32.56 | 75935 | 87390
6 | 19:25.16 | 1:05.03 | 87391 | 92268
7 | 20:30.19 | 5:58.06 | 92269 | 119124
8 | 26:28.25 | 3:14.61 | 119125 | 133735
9 | 29:43.11 | 4:09.30 | 133736 | 152440
10 | 33:52.41 | 3:54.47 | 152441 | 170037
11 | 37:47.13 | 1:52.30 | 170038 | 178467
12 | 39:39.43 | 4:09.59 | 178468 | 197201
13 | 43:49.27 | 3:34.57 | 197202 | 213308
14 | 49:56.09 | 6:32.57 | 224709 | 254165

Характеристики диапазона извлечения и сообщения об ошибках

Выбранный диапазон

Имя файла D:\Rip\Billy\Немного\Billy's Band - Немного Смерти Немного Любви.wav

Пиковый уровень 99.9 %
Качество диапазона 99.9 %
CRC теста 03AE7AD0
CRC копии 03AE7AD0
Копирование... OK

Ошибок не произошло

Конец отчёта
<SessionStatCache.xml>
<Alex_Pistoletov>
<createTime> 14.02.2014 </createTime>
<variableValues>
<serviceCost> -46523 </serviceCost>
<receivedCreditsBattle> 43300 </receivedCreditsBattle>
<serviceCostBattle> -36983 </serviceCostBattle>
<totalFreeXP> 93 </totalFreeXP>
<receivedCredits> 66994 </receivedCredits>
<totalXPRatio> 1900 </totalXPRatio>
<totalVehicleTier> 20 </totalVehicleTier>
</variableValues>
<stats>
<freeXP> 10642 </freeXP>
<damageAssistedTrack> 365902 </damageAssistedTrack>
<gold> 529 </gold>
<totalXP> 8761259 </totalXP>
<damageReceived> 14298513 </damageReceived>
<capturePoints> 21291 </capturePoints>
<damageDealt> 15877196 </damageDealt>
<deathsCount> 11965 </deathsCount>
<fragsCount> 12872 </fragsCount>
<droppedCapturePoints> 9470 </droppedCapturePoints>
<spottedCount> 19472 </spottedCount>
<credits> 16340938 </credits>
<battlesCount> 15759 </battlesCount>
<winsCount> 7893 </winsCount>
<shotsCount> 115651 </shotsCount>
<originalXP> 1790166 </originalXP>
<lossesCount> 7616 </lossesCount>
<hitsCount> 81817 </hitsCount>
<damageAssistedRadio> 1648309 </damageAssistedRadio>
</stats>
</Alex_Pistoletov>
</SessionStatCache.xml>
eivedTotal>
<capturePointsTotal> 21291 </capturePointsTotal>
<droppedCapturePointsTotal> 9470 </droppedCapturePointsTotal>
<fragsCountRandom> 12870 </fragsCountRandom>
<fragsCountTeam7x7> 2 </fragsCountTeam7x7>
<PiercedCountRandom> 20615 </PiercedCountRandom>
<capturePointsCompany> 0 </capturePointsCompany>
<shotsCountRandom> 115622 </shotsCountRandom>
<battlesCountCompany> 5 </battlesCountCompany>
<droppedCapturePointsCompany> 0 </droppedCapturePointsCompany>
<hitsCountRandom> 81803 </hitsCountRandom>
<damageReceivedTeam7x7> 2807 </damageReceivedTeam7x7>
<shotsCountClan> 0 </shotsCountClan>
<capturePointsClan> 0 </capturePointsClan>
<winsCountClan> 0 </winsCountClan>
<PiercedCountTotal> 20652 </PiercedCountTotal>
<damageDealtCompany> 888 </damageDealtCompany>
<fragsCountClan> 0 </fragsCountClan>
<shotsCountCompany> 26 </shotsCountCompany>
<deathsCountRandom> 11962 </deathsCountRandom>
<deathsCountClan> 0 </deathsCountClan>
<winsCountRandom> 7889 </winsCountRandom>
<spottedCountTeam7x7> 4 </spottedCountTeam7x7>
<damageDealtClan> 0 </damageDealtClan>
<damageReceivedClan> 0 </damageReceivedClan>
<capturePointsTeam7x7> 0 </capturePointsTeam7x7>
<damageReceivedCompany> 2067 </damageReceivedCompany>
<winsCountCompany> 3 </winsCountCompany>
<DamageAssistedTrackClan> 0 </DamageAssistedTrackClan>
<XPTotal> 8767321 </XPTotal>
<spottedCountTotal> 19476 </spottedCountTotal>
<capturePointsRandom> 21291 </capturePointsRandom>
<hitsCountC
REM GENRE Alco-jazz 
REM DATE 2004
REM DISCID B70D3C0E
REM COMMENT "ExactAudioCopy v0.99pb4"
PERFORMER "Billy's band"
TITLE "Немного смерти, немного любви"
FILE "Billy's Band - Немного Смерти Немного Любви.flac" WAVE
TRACK 01 AUDIO
TITLE "Немного смерти, немного любви"
PERFORMER "Billy's Band"
FLAGS DCP
INDEX 01 00:00:00
TRACK 02 AUDIO
TITLE "Кафе 'Последний путь'"
PERFORMER "Billy's Band"
FLAGS DCP
INDEX 00 03:34:42
INDEX 01 03:34:62
TRACK 03 AUDIO
TITLE "Открытка от..."
PERFORMER "Billy's Band"
FLAGS DCP
INDEX 00 07:32:52
INDEX 01 07:32:74
TRACK 04 AUDIO
TITLE "На его месте должен был быть я..."
PERFORMER "Billy's Band"
FLAGS DCP
INDEX 00 13:22:45
INDEX 01 13:22:56
TRACK 05 AUDIO
TITLE "Последний день Карлсона"
PERFORMER "Billy's Band"
FLAGS DCP
INDEX 01 16:52:35
TRACK 06 AUDIO
TITLE "Дорожная (интро)"
PERFORMER "Billy's Band"
FLAGS DCP
INDEX 00 19:25:12
INDEX 01 19:25:16
TRACK 07 AUDIO
TITLE "Дорожная"
PERFORMER "Billy's Band"
FLAGS DCP
INDEX 00 20:30:05
INDEX 01 20:30:19
TRACK 08 AUDIO
TITLE "Бильярд"
PERFORMER "Billy's Band"
FLAGS DCP
INDEX 00 26:28:14
INDEX 01 26:28:25
TRACK 09 AUDIO
TITLE "Всё хорошо"
PERFORMER "Billy's Band"
FLAGS DCP
INDEX 00 29:42:66
INDEX 01 29:43:11
TRACK 10 AUDIO
TITLE "Никогда не разговаривай с мертвецами"
PERFORMER "Billy's Band"
FLAGS DCP
INDEX 01 33:52:41
TRACK 11 AUDIO
TITLE "Другая сторона дороги (народная)"
PERFORMER "Billy's Band"
FLAGS DCP
INDEX 00 37:46:70
INDEX 01 37:47:13
TRACK 12 AUDIO
01. So Long I'll See Ya (4:12)
02. Clap Hands (5:03)
03. Chocolate Jesus (6:28)
04. Temptation (2:42)
05. Tango Till They're Sore (4:28)
06. Cold Ground (5:51)
07. I'll Be Gone (2:24)
08. I'll Shoot the Moon (5:34)
09. Ice Cream Man (3:10)
10. Gunstreet Girl (5:49)
11. Down in a Hole (2:56)
12. More Than Rain (4:06)
13. Jockey Full of Bourbon (2:55)
14. Reeperbahn (4:01)
15. Blue Valentines (7:31)
REM GENRE Alco-jazz 
REM DATE 2004
REM DISCID B70D3C0E
REM COMMENT "ExactAudioCopy v0.99pb4"
PERFORMER "Billy's band"
TITLE "Немного смерти, немного любви"
FILE "Billy's Band - Немного Смерти Немного Любви.flac" WAVE
TRACK 01 AUDIO
TITLE "Немного смерти, немного любви"
PERFORMER "Billy's Band"
FLAGS DCP
INDEX 01 00:00:00
TRACK 02 AUDIO
TITLE "Кафе 'Последний путь'"
PERFORMER "Billy's Band"
FLAGS DCP
INDEX 00 03:34:42
INDEX 01 03:34:62
TRACK 03 AUDIO
TITLE "Открытка от..."
PERFORMER "Billy's Band"
FLAGS DCP
INDEX 00 07:32:52
INDEX 01 07:32:74
TRACK 04 AUDIO
TITLE "На его месте должен был быть я..."
PERFORMER "Billy's Band"
FLAGS DCP
INDEX 00 13:22:45
INDEX 01 13:22:56
TRACK 05 AUDIO
TITLE "Последний день Карлсона"
PERFORMER "Billy's Band"
FLAGS DCP
INDEX 01 16:52:35
TRACK 06 AUDIO
TITLE "Дорожная (интро)"
PERFORMER "Billy's Band"
FLAGS DCP
INDEX 00 19:25:12
INDEX 01 19:25:16
TRACK 07 AUDIO
TITLE "Дорожная"
PERFORMER "Billy's Band"
FLAGS DCP
INDEX 00 20:30:05
INDEX 01 20:30:19
TRACK 08 AUDIO
TITLE "Бильярд"
PERFORMER "Billy's Band"
FLAGS DCP
INDEX 00 26:28:14
INDEX 01 26:28:25
TRACK 09 AUDIO
TITLE "Всё хорошо"
PERFORMER "Billy's Band"
FLAGS DCP
INDEX 00 29:42:66
INDEX 01 29:43:11
TRACK 10 AUDIO
TITLE "Никогда не разговаривай с мертвецами"
PERFORMER "Billy's Band"
FLAGS DCP
INDEX 01 33:52:41
TRACK 11 AUDIO
TITLE "Другая сторона дороги (народная)"
PERFORMER "Billy's Band"
FLAGS DCP
INDEX 00 37:46:70
INDEX 01 37:47:13
TRACK 12 AUDIO
REM GENRE Alco-jazz 
REM DATE 2005
REM DISCID E7117710
REM COMMENT "ExactAudioCopy v1.0b3"
PERFORMER "Billy's band"
TITLE "Игры в Тома Уэйтса"
FILE "Billy's band - Игры в Тома Уэйтса.flac" WAVE
TRACK 01 AUDIO
TITLE "So Long I'll See Ya"
PERFORMER "Billy's band"
FLAGS DCP
INDEX 01 00:00:00
TRACK 02 AUDIO
TITLE "Clap Hands"
PERFORMER "Billy's band"
FLAGS DCP
INDEX 01 04:11:54
TRACK 03 AUDIO
TITLE "Chocolate Jesus"
PERFORMER "Billy's band"
FLAGS DCP
INDEX 01 09:14:53
TRACK 04 AUDIO
TITLE "Temptation"
PERFORMER "Billy's band"
FLAGS DCP
INDEX 01 15:42:18
TRACK 05 AUDIO
TITLE "Tango Till They're Sore"
PERFORMER "Billy's band"
FLAGS DCP
INDEX 01 18:24:51
TRACK 06 AUDIO
TITLE "Cold Ground"
PERFORMER "Billy's band"
FLAGS DCP
INDEX 01 22:52:63
TRACK 07 AUDIO
TITLE "I'll Be Gone"
PERFORMER "Billy's band"
FLAGS DCP
INDEX 01 28:43:37
TRACK 08 AUDIO
TITLE "I'll Shoot the Moon"
PERFORMER "Billy's band"
FLAGS DCP
INDEX 01 31:07:02
TRACK 09 AUDIO
TITLE "Ice Cream Man"
PERFORMER "Billy's band"
FLAGS DCP
INDEX 01 36:41:08
TRACK 10 AUDIO
TITLE "Gunstreet Girl"
PERFORMER "Billy's band"
FLAGS DCP
INDEX 01 39:51:45
TRACK 11 AUDIO
TITLE "Down in a Hole"
PERFORMER "Billy's band"
FLAGS DCP
INDEX 01 45:40:52
TRACK 12 AUDIO
TITLE "More Than Rain"
PERFORMER "Billy's band"
FLAGS DCP
INDEX 01 48:36:49
TRACK 13 AUDIO
TITLE "Jockey Full of Bourbon"
PERFORMER "Billy's band"
FLAGS DCP
INDEX 01 52:42:50
TRACK 14 AUDIO
TITLE "Reeperbahn"
PERFORMER "Billy's band"
FLAGS DCP
INDEX 01 55:37:38
TRACK 15 AUDIO
TITLE "Blue Valentines"
PERFORMER "Billy's band"
FLAGS DCP
INDEX 01 59:38:53
01. Оторвемся по-питерски (3:46)
02. Я не вернусь (4:19)
03. В голове блюз (5:20)
04. Я послала любовь (4:40)
05. Так я падал (4:44)
06. Упражнение в... (инструментал) (1:22)
07. 32 рубля (3:01)
08. Где спит твое сердце (4:56)
09. Не верь мужикам (3:18)
10. В этом городе (4:02)
11. Зимнее утро (инструментал) (1:19)
12. Кладбище девичьих сердец (4:36)
13. Оторвемся по-питерски (джаз-версия) (3:50)
Exact Audio Copy V1.0 beta 3 from 29. August 2011 

EAC extraction logfile from 27. November 2012, 6:45

Billy's band / Оторвемся по-питерски

Used drive : ASUS DRW-22B3S Adapter: 0 ID: 0

Read mode : Secure
Utilize accurate stream : Yes
Defeat audio cache : Yes
Make use of C2 pointers : No

Read offset correction : 6
Overread into Lead-In and Lead-Out : No
Fill up missing offset samples with silence : Yes
Delete leading and trailing silent blocks : No
Null samples used in CRC calculations : Yes
Used interface : Installed external ASPI interface

Used output format : User Defined Encoder
Selected bitrate : 768 kBit/s
Quality : High
Add ID3 tag : No
Command line compressor : C:\Program Files\Exact Audio Copy\FLAC\FLAC.EXE
Additional command line options : -6 -V -T "ARTIST=%artist%" -T "TITLE=%title%" -T "ALBUM=%albumtitle%" -T "DATE=%year%" -T "TRACKNUMBER=%tracknr%" -T "GENRE=%genre%" -T "COMMENT=%comment%" -T "BAND=%albuminterpret%" -T "COMPOSER=%composer%" %haslyrics%--tag-from-file=LYRICS="%lyricsfile%"%haslyrics% -T "DISCNUMBER=%cdnumber%" -T "TOTALDISCS=%totalcds%" -T "TOTALTRACKS=%numtracks%" %hascover%--picture="%coverfile%"%hascover% %source% -o %dest%

TOC of the extracted CD

Track | Start | Length | Start sector | End sector
---------------------------------------------------------
1 | 0:00.00 | 3:45.58 | 0 | 16932
2 | 3:45.58 | 4:18.66 | 16933 | 36348
3 | 8:04.49 | 5:20.37 | 36349 | 60385
4 | 13:25.11 | 4:40.24 | 60386 | 81409
5 | 18:05.35 | 4:43.57 | 81410 | 102691
6 | 22:49.17 | 1:21.56 | 102692 | 108822
7 | 24:10.73 | 3:01.14 | 108823 | 122411
8 | 27:12.12 | 4:56.17 | 122412 | 144628
9 | 32:08.29 | 3:18.08 | 144629 | 159486
10 | 35:26.37 | 4:02.12 | 159487 | 177648
11 | 39:28.49 | 1:19.18 | 177649 | 183591
12 | 40:47.67 | 4:36.01 | 183592 | 204292
13 | 45:23.68 | 3:50.28 | 204293 | 221570
14 | 51:46.21 | 3:01.73 | 232971 | 246618

Range status and errors

Selected range

Filename H:\! Мастерская\Billy's band (flac)\2005 - Оторвемся по-питерски\Billy's band - Оторвемся по-питерски.wav

Peak level 99.9 %
Extraction speed 3.0 X
Range quality 100.0 %
Test CRC D6E15A0E
Copy CRC D6E15A0E
Copy OK

No errors occurred

AccurateRip summary
Track 1 accurately ripped (confidence 1) [E27365A6] (AR v1)
Track 2 accurately ripped (confidence 1) [A4687346] (AR v1)
Track 3 accurately ripped (confidence 1) [8F198214] (AR v1)
Track 4 accurately ripped (confidence 1) [EA513668] (AR v1)
Track 5 accurately ripped (confidence 1) [C6693710] (AR v1)
Track 6 accurately ripped (confidence 1) [6BB41E70] (AR v1)
Track 7 accurately ripped (confidence 1) [3DD037BC] (AR v1)
Track 8 accurately ripped (confidence 1) [7841EA33] (AR v1)
Track 9 accurately ripped (confidence 1) [5C4C691A] (AR v1)
Track 10 accurately ripped (confidence 1) [F0B06C07] (AR v1)
Track 11 accurately ripped (confidence 1) [33207DE1] (AR v1)
Track 12 accurately ripped (confidence 1) [3ADAB05C] (AR v1)
Track 13 accurately ripped (confidence 1) [0F3209EC] (AR v1)
All tracks accurately ripped

End of status report

---- CUETools DB Plugin V2.1.3

[CTDB TOCID: tHQJVwmMhV7K2BupJDXanH0Csmo-] found, Submit result: tHQJVwmMhV7K2BupJDXanH0Csmo- has been confirmed
[ab50a141] (2/2) Accurately ripped

==== Log checksum 52D787EE7C8363C3960AD4A8FCB163CF2025652846D6F3B259F01BF777347B5B ====
REM GENRE Alco-jazz 
REM DATE 2005
REM DISCID B90CD80E
REM COMMENT "ExactAudioCopy v1.0b3"
PERFORMER "Billy's band"
TITLE "Оторвемся по-питерски"
FILE "Billy's band - Оторвемся по-питерски.flac" WAVE
TRACK 01 AUDIO
TITLE "Оторвемся по-питерски"
PERFORMER "Billy's band"
FLAGS DCP
INDEX 01 00:00:00
TRACK 02 AUDIO
TITLE "Я не вернусь"
PERFORMER "Billy's band"
FLAGS DCP
INDEX 00 03:43:58
INDEX 01 03:45:58
TRACK 03 AUDIO
TITLE "В голове блюз"
PERFORMER "Billy's band"
FLAGS DCP
INDEX 00 08:02:49
INDEX 01 08:04:49
TRACK 04 AUDIO
TITLE "Я послала любовь"
PERFORMER "Billy's band"
FLAGS DCP
INDEX 00 13:23:11
INDEX 01 13:25:11
TRACK 05 AUDIO
TITLE "Так я падал"
PERFORMER "Billy's band"
FLAGS DCP
INDEX 00 18:03:35
INDEX 01 18:05:35
TRACK 06 AUDIO
TITLE "Упражнение в... (инструментал)"
PERFORMER "Billy's band"
FLAGS DCP
INDEX 00 22:47:17
INDEX 01 22:49:17
TRACK 07 AUDIO
TITLE "32 рубля"
PERFORMER "Billy's band"
FLAGS DCP
INDEX 00 24:08:73
INDEX 01 24:10:73
TRACK 08 AUDIO
TITLE "Где спит твое сердце"
PERFORMER "Billy's band"
FLAGS DCP
INDEX 00 27:10:12
INDEX 01 27:12:12
TRACK 09 AUDIO
TITLE "Не верь мужикам"
PERFORMER "Billy's band"
FLAGS DCP
INDEX 00 32:06:29
INDEX 01 32:08:29
TRACK 10 AUDIO
TITLE "В этом городе"
PERFORMER "Billy's band"
FLAGS DCP
INDEX 00 35:24:37
INDEX 01 35:26:37
TRACK 11 AUDIO
TITLE "Зимнее утро (инструментал)"
PERFORMER "Billy's band"
FLAGS DCP
INDEX 00 39:26:49
INDEX 01 39:28:49
TRACK 12 AUDIO
TITLE "Кладбище девичьих сердец"
PERFORMER "Billy's band"
FLAGS DCP
INDEX 00 40:45:67
INDEX 01 40:47:67
TRACK 13 AUDIO
TITLE "Оторвемся по-питерски (джаз-версия)"
PERFORMER "Billy's band"
FLAGS DCP
INDEX 00 45:21:68
INDEX 01 45:23:68
01. На его месте должен был быть я (4:18)
02. Немного смерти, немного любви (4:41)
03. Clap hands (5:24)
04. Последний день лета (6:06)
05. 32 рубля (3:17)
06. Где спит твое сердце (5:45)
07. В голове блюз (8:09)
08. Не верь мужикам (3:54)
09. Коктейль (5:30)
10. Парижские сезоны (2:37)
11. Ice cream man (4:04)
12. В этом городе (5:58)
13. Выпей вина (5:45)
14. Кладбище девичьих сердец (5:16)
Exact Audio Copy V1.0 beta 3 from 29. August 2011 

EAC extraction logfile from 28. November 2012, 21:07

Billy's band / Блюз в голове

Used drive : ASUS DRW-22B3S Adapter: 0 ID: 0

Read mode : Secure
Utilize accurate stream : Yes
Defeat audio cache : Yes
Make use of C2 pointers : No

Read offset correction : 6
Overread into Lead-In and Lead-Out : No
Fill up missing offset samples with silence : Yes
Delete leading and trailing silent blocks : No
Null samples used in CRC calculations : Yes
Used interface : Installed external ASPI interface

Used output format : User Defined Encoder
Selected bitrate : 768 kBit/s
Quality : High
Add ID3 tag : No
Command line compressor : C:\Program Files\Exact Audio Copy\FLAC\FLAC.EXE
Additional command line options : -6 -V -T "ARTIST=%artist%" -T "TITLE=%title%" -T "ALBUM=%albumtitle%" -T "DATE=%year%" -T "TRACKNUMBER=%tracknr%" -T "GENRE=%genre%" -T "COMMENT=%comment%" -T "BAND=%albuminterpret%" -T "COMPOSER=%composer%" %haslyrics%--tag-from-file=LYRICS="%lyricsfile%"%haslyrics% -T "DISCNUMBER=%cdnumber%" -T "TOTALDISCS=%totalcds%" -T "TOTALTRACKS=%numtracks%" %hascover%--picture="%coverfile%"%hascover% %source% -o %dest%

TOC of the extracted CD

Track | Start | Length | Start sector | End sector
---------------------------------------------------------
1 | 0:00.00 | 4:17.74 | 0 | 19348
2 | 4:17.74 | 4:41.07 | 19349 | 40430
3 | 8:59.06 | 5:23.68 | 40431 | 64723
4 | 14:22.74 | 6:06.05 | 64724 | 92178
5 | 20:29.04 | 3:16.71 | 92179 | 106949
6 | 23:46.00 | 5:45.31 | 106950 | 132855
7 | 29:31.31 | 8:08.68 | 132856 | 169523
8 | 37:40.24 | 3:53.72 | 169524 | 187070
9 | 41:34.21 | 5:30.04 | 187071 | 211824
10 | 47:04.25 | 2:37.09 | 211825 | 223608
11 | 49:41.34 | 4:04.09 | 223609 | 241917
12 | 53:45.43 | 5:58.07 | 241918 | 268774
13 | 59:43.50 | 5:44.64 | 268775 | 294638
14 | 65:28.39 | 5:16.17 | 294639 | 318355

Range status and errors

Selected range

Filename H:\! Мастерская\Billy's band (flac)\2006 - Блюз в голове\Billy's band - Блюз в голове.wav

Peak level 100.0 %
Extraction speed 3.5 X
Range quality 100.0 %
Test CRC D615A0D8
Copy CRC D615A0D8
Copy OK

No errors occurred

AccurateRip summary
Track 1 accurately ripped (confidence 2) [D67A5D70] (AR v1)
Track 2 accurately ripped (confidence 2) [41950702] (AR v1)
Track 3 accurately ripped (confidence 2) [C113C716] (AR v1)
Track 4 accurately ripped (confidence 2) [75786921] (AR v1)
Track 5 accurately ripped (confidence 2) [C539C75D] (AR v1)
Track 6 accurately ripped (confidence 2) [921DE4B3] (AR v1)
Track 7 accurately ripped (confidence 2) [49FB5EED] (AR v1)
Track 8 accurately ripped (confidence 2) [3323ED10] (AR v1)
Track 9 accurately ripped (confidence 2) [8C322BEA] (AR v1)
Track 10 accurately ripped (confidence 2) [D8B06F68] (AR v1)
Track 11 accurately ripped (confidence 2) [C8B7CBAF] (AR v1)
Track 12 accurately ripped (confidence 2) [AB5F2CB9] (AR v1)
Track 13 accurately ripped (confidence 2) [CFE574A9] (AR v1)
Track 14 accurately ripped (confidence 2) [EC9EC7B5] (AR v1)
All tracks accurately ripped

End of status report

---- CUETools DB Plugin V2.1.3

[CTDB TOCID: 79taDF83ozvCJzHSb2vGqdJJBuQ-] disk not present in database, Submit result: 79taDF83ozvCJzHSb2vGqdJJBuQ- has been uploaded

==== Log checksum F67B7C08709999B344EC5E804E53C984A2DE703E20B6366E1009249863424185 ====
REM GENRE "Alco-jazz " 
REM DATE 2005
REM DISCID D110940E
REM COMMENT "ExactAudioCopy v1.0b3"
PERFORMER "Billy's band"
TITLE "Блюз в голове"
FILE "Billy's band - Блюз в голове.flac" WAVE
TRACK 01 AUDIO
TITLE "На его месте должен был быть я"
PERFORMER "Billy's band"
FLAGS DCP
INDEX 01 00:00:00
TRACK 02 AUDIO
TITLE "Немного смерти, немного любви"
PERFORMER "Billy's band"
FLAGS DCP
INDEX 01 04:17:74
TRACK 03 AUDIO
TITLE "Clap hands"
PERFORMER "Billy's band"
FLAGS DCP
INDEX 01 08:59:06
TRACK 04 AUDIO
TITLE "Последний день лета"
PERFORMER "Billy's band"
FLAGS DCP
INDEX 01 14:22:74
TRACK 05 AUDIO
TITLE "32 рубля"
PERFORMER "Billy's band"
FLAGS DCP
INDEX 01 20:29:04
TRACK 06 AUDIO
TITLE "Где спит твое сердце"
PERFORMER "Billy's band"
FLAGS DCP
INDEX 01 23:46:00
TRACK 07 AUDIO
TITLE "В голове блюз"
PERFORMER "Billy's band"
FLAGS DCP
INDEX 01 29:31:31
TRACK 08 AUDIO
TITLE "Не верь мужикам"
PERFORMER "Billy's band"
FLAGS DCP
INDEX 01 37:40:24
TRACK 09 AUDIO
TITLE "Коктейль"
PERFORMER "Billy's band"
FLAGS DCP
INDEX 01 41:34:21
TRACK 10 AUDIO
TITLE "Парижские сезоны"
PERFORMER "Billy's band"
FLAGS DCP
INDEX 01 47:04:25
TRACK 11 AUDIO
TITLE "Ice cream man"
PERFORMER "Billy's band"
FLAGS DCP
INDEX 01 49:41:34
TRACK 12 AUDIO
TITLE "В этом городе"
PERFORMER "Billy's band"
FLAGS DCP
INDEX 01 53:45:43
TRACK 13 AUDIO
TITLE "Выпей вина"
PERFORMER "Billy's band"
FLAGS DCP
INDEX 01 59:43:50
TRACK 14 AUDIO
TITLE "Кладбище девичьих сердец"
PERFORMER "Billy's band"
FLAGS DCP
INDEX 01 65:28:39
01. Счастье есть (2:49)
02. Время которое нужно убить (4:20)
03. Ни шагу из дома (4:44)
04. Снежная королева (3:58)
05. Передай привет (песня о погибшем брате) (4:58)
06. Невиновен (4:38)
07. Последний день лета (5:14)
08. Я не стеклянный (4:39)
09. Ляг на землю (3:44)
10. Встречай меня Москва! (3:47)
11. Купчино - столица мира (прощальная) (5:07)
12. Простим друг друга (4:52)
13. 29 марта (Инструментал) (1:36)
14. Счастье есть II (чернозём) (2:55)
15. Весенние обострения (4:57)
16. Голос Брехуна (совместно с Каста) (бонус) (4:02)
17. Время которое нужно убить (ремикс Влади) (бонус) (4:30)
Exact Audio Copy V1.0 beta 3 from 29. August 2011 

EAC extraction logfile from 28. November 2012, 22:47

Billy`s band / Весенние обострения

Used drive : ASUS DRW-22B3S Adapter: 0 ID: 0

Read mode : Secure
Utilize accurate stream : Yes
Defeat audio cache : Yes
Make use of C2 pointers : No

Read offset correction : 6
Overread into Lead-In and Lead-Out : No
Fill up missing offset samples with silence : Yes
Delete leading and trailing silent blocks : No
Null samples used in CRC calculations : Yes
Used interface : Installed external ASPI interface

Used output format : User Defined Encoder
Selected bitrate : 768 kBit/s
Quality : High
Add ID3 tag : No
Command line compressor : C:\Program Files\Exact Audio Copy\FLAC\FLAC.EXE
Additional command line options : -6 -V -T "ARTIST=%artist%" -T "TITLE=%title%" -T "ALBUM=%albumtitle%" -T "DATE=%year%" -T "TRACKNUMBER=%tracknr%" -T "GENRE=%genre%" -T "COMMENT=%comment%" -T "BAND=%albuminterpret%" -T "COMPOSER=%composer%" %haslyrics%--tag-from-file=LYRICS="%lyricsfile%"%haslyrics% -T "DISCNUMBER=%cdnumber%" -T "TOTALDISCS=%totalcds%" -T "TOTALTRACKS=%numtracks%" %hascover%--picture="%coverfile%"%hascover% %source% -o %dest%

TOC of the extracted CD

Track | Start | Length | Start sector | End sector
---------------------------------------------------------
1 | 0:00.00 | 2:49.10 | 0 | 12684
2 | 2:49.10 | 4:19.69 | 12685 | 32178
3 | 7:09.04 | 4:43.42 | 32179 | 53445
4 | 11:52.46 | 3:57.67 | 53446 | 71287
5 | 15:50.38 | 4:57.40 | 71288 | 93602
6 | 20:48.03 | 4:38.25 | 93603 | 114477
7 | 25:26.28 | 5:13.63 | 114478 | 138015
8 | 30:40.16 | 4:38.38 | 138016 | 158903
9 | 35:18.54 | 3:43.59 | 158904 | 175687
10 | 39:02.38 | 3:46.40 | 175688 | 192677
11 | 42:49.03 | 5:06.69 | 192678 | 215696
12 | 47:55.72 | 4:51.38 | 215697 | 237559
13 | 52:47.35 | 1:36.07 | 237560 | 244766
14 | 54:23.42 | 2:54.74 | 244767 | 257890
15 | 57:18.41 | 4:57.05 | 257891 | 280170
16 | 62:15.46 | 4:02.20 | 280171 | 298340
17 | 66:17.66 | 4:29.66 | 298341 | 318581

Range status and errors

Selected range

Filename H:\! Мастерская\Billy's band (flac)\2007 - Весенние обострения\Billy`s band - Весенние обострения.wav

Peak level 100.0 %
Extraction speed 3.5 X
Range quality 100.0 %
Test CRC 7D265036
Copy CRC 7D265036
Copy OK

No errors occurred

AccurateRip summary
Track 1 accurately ripped (confidence 3) [327A318C] (AR v1)
Track 2 accurately ripped (confidence 3) [0CB045D4] (AR v1)
Track 3 accurately ripped (confidence 3) [2152952C] (AR v1)
Track 4 accurately ripped (confidence 3) [00B4FA99] (AR v1)
Track 5 accurately ripped (confidence 3) [14523FD9] (AR v1)
Track 6 accurately ripped (confidence 3) [4BB3C710] (AR v1)
Track 7 accurately ripped (confidence 3) [A1E3DF9C] (AR v1)
Track 8 accurately ripped (confidence 3) [C2AE4898] (AR v1)
Track 9 accurately ripped (confidence 3) [B3DB5B90] (AR v1)
Track 10 accurately ripped (confidence 3) [02412A18] (AR v1)
Track 11 accurately ripped (confidence 3) [07BBE0F8] (AR v1)
Track 12 accurately ripped (confidence 3) [65FAA461] (AR v1)
Track 13 accurately ripped (confidence 3) [4AD5D98E] (AR v1)
Track 14 accurately ripped (confidence 3) [17A44C14] (AR v1)
Track 15 accurately ripped (confidence 3) [3E5B641B] (AR v1)
Track 16 accurately ripped (confidence 3) [2DBB32E5] (AR v1)
Track 17 accurately ripped (confidence 3) [4AB860A3] (AR v1)
All tracks accurately ripped

End of status report

---- CUETools DB Plugin V2.1.3

[CTDB TOCID: GTdjmjWN75rqgmz3qLcVGa6vsYQ-] found, Submit result: GTdjmjWN75rqgmz3qLcVGa6vsYQ- has been confirmed
[147e8870] (1/1) Accurately ripped

==== Log checksum 55967CC69D70042654723985873299940D1B34D76B5A157989F38D95B80CFC3F ====
REM GENRE Alco-jazz 
REM DATE 2007
REM DISCID ED109711
REM COMMENT "ExactAudioCopy v1.0b3"
PERFORMER "Billy`s band"
TITLE "Весенние обострения"
FILE "Billy`s band - Весенние обострения.flac" WAVE
TRACK 01 AUDIO
TITLE "Счастье есть"
PERFORMER "Billy`s band"
FLAGS DCP
INDEX 01 00:00:00
TRACK 02 AUDIO
TITLE "Время которое нужно убить"
PERFORMER "Billy`s band"
FLAGS DCP
INDEX 01 02:49:10
TRACK 03 AUDIO
TITLE "Ни шагу из дома"
PERFORMER "Billy`s band"
FLAGS DCP
INDEX 01 07:09:04
TRACK 04 AUDIO
TITLE "Снежная королева"
PERFORMER "Billy`s band"
FLAGS DCP
INDEX 01 11:52:46
TRACK 05 AUDIO
TITLE "Передай привет (песня о погибшем брате)"
PERFORMER "Billy`s band"
FLAGS DCP
INDEX 01 15:50:38
TRACK 06 AUDIO
TITLE "Невиновен"
PERFORMER "Billy`s band"
FLAGS DCP
INDEX 01 20:48:03
TRACK 07 AUDIO
TITLE "Последний день лета"
PERFORMER "Billy`s band"
FLAGS DCP
INDEX 01 25:26:28
TRACK 08 AUDIO
TITLE "Я не стеклянный"
PERFORMER "Billy`s band"
FLAGS DCP
INDEX 01 30:40:16
TRACK 09 AUDIO
TITLE "Ляг на землю"
PERFORMER "Billy`s band"
FLAGS DCP
INDEX 00 35:15:54
INDEX 01 35:18:54
TRACK 10 AUDIO
TITLE "Встречай меня Москва!"
PERFORMER "Billy`s band"
FLAGS DCP
INDEX 01 39:02:38
TRACK 11 AUDIO
TITLE "Купчино - столица мира (прощальная)"
PERFORMER "Billy`s band"
FLAGS DCP
INDEX 01 42:49:03
TRACK 12 AUDIO
TITLE "Простим друг друга"
PERFORMER "Billy`s band"
FLAGS DCP
INDEX 01 47:55:72
TRACK 13 AUDIO
TITLE "29 марта (Инструментал)"
PERFORMER "Billy`s band"
FLAGS DCP
INDEX 01 52:47:35
TRACK 14 AUDIO
TITLE "Счастье есть II (чернозём)"
PERFORMER "Billy`s band"
FLAGS DCP
INDEX 01 54:23:42
TRACK 15 AUDIO
TITLE "Весенние обострения"
PERFORMER "Billy`s band"
FLAGS DCP
INDEX 01 57:18:41
TRACK 16 AUDIO
TITLE "Голос Брехуна (совместно с Каста) (бонус)"
PERFORMER "Billy`s band"
FLAGS DCP
INDEX 00 62:10:46
INDEX 01 62:15:46
TRACK 17 AUDIO
TITLE "Время которое нужно убить (ремикс Влади) (бонус)"
PERFORMER "Billy`s band"
FLAGS DCP
INDEX 01 66:17:66
01. Зимний сон (3:14)
02. За тех кто в море (4:46)
03. Вася (3:42)
04. Песня-сказка о нечисти (4:43)
05. Песня Кота и Пирата (3:20)
06. In the hood (2:30)
07. Рассвет (3:46)
08. Родительский дом (4:00)
09. Любовь (2:26)
10. Поезд в огне (3:35)
11. Пошук (2:06)
12. Битум (2:53)
13. Somebody (3:54)
14. The one that got away (rap version) (3:44)
15. Голос Брехуна (4:04)
Exact Audio Copy V1.0 beta 3 from 29. August 2011 

EAC extraction logfile from 19. November 2012, 21:57

Billy's band / Чужие

Used drive : ASUS DRW-22B3S Adapter: 0 ID: 0

Read mode : Secure
Utilize accurate stream : Yes
Defeat audio cache : Yes
Make use of C2 pointers : No

Read offset correction : 6
Overread into Lead-In and Lead-Out : No
Fill up missing offset samples with silence : Yes
Delete leading and trailing silent blocks : No
Null samples used in CRC calculations : Yes
Used interface : Installed external ASPI interface

Used output format : User Defined Encoder
Selected bitrate : 768 kBit/s
Quality : High
Add ID3 tag : No
Command line compressor : C:\Program Files\Exact Audio Copy\FLAC\FLAC.EXE
Additional command line options : -6 -V -T "ARTIST=%artist%" -T "TITLE=%title%" -T "ALBUM=%albumtitle%" -T "DATE=%year%" -T "TRACKNUMBER=%tracknr%" -T "GENRE=%genre%" -T "COMMENT=%comment%" -T "BAND=%albuminterpret%" -T "COMPOSER=%composer%" %haslyrics%--tag-from-file=LYRICS="%lyricsfile%"%haslyrics% -T "DISCNUMBER=%cdnumber%" -T "TOTALDISCS=%totalcds%" -T "TOTALTRACKS=%numtracks%" %hascover%--picture="%coverfile%"%hascover% %source% -o %dest%

TOC of the extracted CD

Track | Start | Length | Start sector | End sector
---------------------------------------------------------
1 | 0:00.00 | 3:13.39 | 0 | 14513
2 | 3:13.39 | 4:46.36 | 14514 | 35999
3 | 8:00.00 | 3:41.68 | 36000 | 52642
4 | 11:41.68 | 4:43.21 | 52643 | 73888
5 | 16:25.14 | 3:20.00 | 73889 | 88888
6 | 19:45.14 | 2:29.42 | 88889 | 100105
7 | 22:14.56 | 3:45.47 | 100106 | 117027
8 | 26:00.28 | 4:00.05 | 117028 | 135032
9 | 30:00.33 | 2:25.52 | 135033 | 145959
10 | 32:26.10 | 3:35.33 | 145960 | 162117
11 | 36:01.43 | 2:06.09 | 162118 | 171576
12 | 38:07.52 | 2:52.69 | 171577 | 184545
13 | 41:00.46 | 3:54.09 | 184546 | 202104
14 | 44:54.55 | 3:44.09 | 202105 | 218913
15 | 48:38.64 | 4:04.03 | 218914 | 237216

Range status and errors

Selected range

Filename H:\! Мастерская\Billy's band (flac)\2007 - Чужие\Billy's band - Чужие.wav

Peak level 99.7 %
Extraction speed 5.9 X
Range quality 100.0 %
Test CRC 7CA1D761
Copy CRC 7CA1D761
Copy OK

No errors occurred

AccurateRip summary
Track 1 accurately ripped (confidence 5) [318C7579] (AR v1)
Track 2 accurately ripped (confidence 5) [D46331F9] (AR v1)
Track 3 accurately ripped (confidence 5) [B3CFA16D] (AR v1)
Track 4 accurately ripped (confidence 5) [8A76E41D] (AR v1)
Track 5 accurately ripped (confidence 5) [FFC10102] (AR v1)
Track 6 accurately ripped (confidence 5) [61321926] (AR v1)
Track 7 accurately ripped (confidence 5) [FE68C8C2] (AR v1)
Track 8 accurately ripped (confidence 5) [8C4033E6] (AR v1)
Track 9 accurately ripped (confidence 5) [84D1DFA2] (AR v1)
Track 10 accurately ripped (confidence 5) [7F1BB6F6] (AR v1)
Track 11 accurately ripped (confidence 5) [ADBC186B] (AR v1)
Track 12 accurately ripped (confidence 5) [887C4184] (AR v1)
Track 13 accurately ripped (confidence 5) [DC7B9489] (AR v1)
Track 14 accurately ripped (confidence 5) [4A46460D] (AR v1)
Track 15 accurately ripped (confidence 5) [65E1B137] (AR v1)
All tracks accurately ripped

End of status report

---- CUETools DB Plugin V2.1.3

[CTDB TOCID: Vsynrb55yXvv9VVrdeQdwi4WSZg-] found, Submit result: Vsynrb55yXvv9VVrdeQdwi4WSZg- has been confirmed
[fa7aac7f] (6/6) Accurately ripped

==== Log checksum DC6EE98247D4DEEED89C47B4F2E55E5F9B34BC32C97B7B632D92AED59674AACD ====
REM GENRE Alco-jazz 
REM DATE 2007
REM DISCID E10C5A0F
REM COMMENT "ExactAudioCopy v1.0b3"
PERFORMER "Billy's band"
TITLE "Чужие"
FILE "Billy's band - Чужие.flac" WAVE
TRACK 01 AUDIO
TITLE "Зимний сон"
PERFORMER "Billy's band"
FLAGS DCP
INDEX 01 00:00:00
TRACK 02 AUDIO
TITLE "За тех кто в море"
PERFORMER "Billy's band"
FLAGS DCP
INDEX 01 03:13:39
TRACK 03 AUDIO
TITLE "Вася"
PERFORMER "Billy's band"
FLAGS DCP
INDEX 01 08:00:00
TRACK 04 AUDIO
TITLE "Песня-сказка о нечисти"
PERFORMER "Billy's band"
FLAGS DCP
INDEX 01 11:41:68
TRACK 05 AUDIO
TITLE "Песня Кота и Пирата"
PERFORMER "Billy's band"
FLAGS DCP
INDEX 01 16:25:14
TRACK 06 AUDIO
TITLE "In the hood"
PERFORMER "Billy's band"
FLAGS DCP
INDEX 01 19:45:14
TRACK 07 AUDIO
TITLE "Рассвет"
PERFORMER "Billy's band"
FLAGS DCP
INDEX 01 22:14:56
TRACK 08 AUDIO
TITLE "Родительский дом"
PERFORMER "Billy's band"
FLAGS DCP
INDEX 01 26:00:28
TRACK 09 AUDIO
TITLE "Любовь"
PERFORMER "Billy's band"
FLAGS DCP
INDEX 01 30:00:33
TRACK 10 AUDIO
TITLE "Поезд в огне"
PERFORMER "Billy's band"
FLAGS DCP
INDEX 01 32:26:10
TRACK 11 AUDIO
TITLE "Пошук"
PERFORMER "Billy's band"
FLAGS DCP
INDEX 01 36:01:43
TRACK 12 AUDIO
TITLE "Битум"
PERFORMER "Billy's band"
FLAGS DCP
INDEX 01 38:07:52
TRACK 13 AUDIO
TITLE "Somebody"
PERFORMER "Billy's band"
FLAGS DCP
INDEX 01 41:00:46
TRACK 14 AUDIO
TITLE "The one that got away (rap version)"
PERFORMER "Billy's band"
FLAGS DCP
INDEX 01 44:54:55
TRACK 15 AUDIO
TITLE "Голос Брехуна"
PERFORMER "Billy's band"
FLAGS DCP
INDEX 01 48:38:64
01. Немного смерти, немного любви (3:34)
02. Оторвемся по-питерски (3:48)
03. В этом городе (4:00)
04. 200 кубиков Агдама (4:27)
05. Зимний сон (3:14)
06. Парижские сезоны (2:33)
07. Встречай меня Москва (3:48)
08. Купчино - столица мира (5:08)
09. Где спит твое сердце (4:55)
10. Счастье есть (2:45)
11. Кладбище девичьих сердец (с Гариком Сукачевым) (4:55)
12. Все хорошо (4:10)
13. Муз Замбела (3:41)
Exact Audio Copy V0.99 prebeta 4 from 23. January 2008 

Отчёт EAC об извлечении, выполненном 10. декабря 2008, 17:58

Billy's Band / «Купчино - столица мира» и другие лучшие песни

Дисковод: _NEC DVD_RW ND-3520AW Adapter: 0 ID: 0

Режим чтения : Достоверность
Использование точного потока : Да
Отключение кэша аудио : Да
Использование указателей C2 : Нет

Коррекция смещения при чтении : 48
Способность читать области Lead-in и Lead-out : Нет
Заполнение пропущенных сэмплов тишиной : Да
Удаление блоков с тишиной в начале и конце : Нет
При вычислениях CRC использовались нулевые сэмплы : Да
Интерфейс : Встроенный Win32-интерфейс для Win NT/2000
Обработка зазоров : Не обнаружено, добавлено к предыдущему треку

Выходной формат : Внутренние WAV-операции
Формат сэмплов : 44.100 Гц; 16 бит; стерео

TOC извлечённого CD

Трек | Старт | Длительность | Начальный сектор | Конечный сектор
---------------------------------------------------------------------
1 | 0:00.00 | 4:36.48 | 0 | 20747
2 | 4:36.48 | 3:34.13 | 20748 | 36810
3 | 8:10.61 | 3:48.24 | 36811 | 53934
4 | 11:59.10 | 4:00.10 | 53935 | 71944
5 | 15:59.20 | 4:26.43 | 71945 | 91937
6 | 20:25.63 | 3:14.00 | 91938 | 106487
7 | 23:39.63 | 2:33.22 | 106488 | 117984
8 | 26:13.10 | 3:47.43 | 117985 | 135052
9 | 30:00.53 | 5:07.62 | 135053 | 158139
10 | 35:08.40 | 4:54.60 | 158140 | 180249
11 | 40:03.25 | 2:45.26 | 180250 | 192650
12 | 42:48.51 | 4:55.22 | 192651 | 214797
13 | 47:43.73 | 4:09.72 | 214798 | 233544
14 | 51:53.70 | 3:40.43 | 233545 | 250087

Трек 2

Имя файла D:\Music Lossless\Billy's Band - «Купчино - столица мира» и другие лучшие песни (2008)\02. Немного смерти, немного любви.wav

Пиковый уровень 94.4 %
Качество трека 99.9 %
CRC копии BB3F387E
Трек не обнаружен в базе AccurateRip
Копирование... OK

Трек 3

Имя файла D:\Music Lossless\Billy's Band - «Купчино - столица мира» и другие лучшие песни (2008)\03. Оторвемся по-питерски.wav

Пиковый уровень 94.4 %
Качество трека 100.0 %
CRC копии F2424C39
Трек не обнаружен в базе AccurateRip
Копирование... OK

Трек 4

Имя файла D:\Music Lossless\Billy's Band - «Купчино - столица мира» и другие лучшие песни (2008)\04. В этом городе.wav

Пиковый уровень 94.4 %
Качество трека 100.0 %
CRC копии FBDD4521
Трек не обнаружен в базе AccurateRip
Копирование... OK

Трек 5

Имя файла D:\Music Lossless\Billy's Band - «Купчино - столица мира» и другие лучшие песни (2008)\05. 200 кубиков Агдама.wav

Пиковый уровень 95.5 %
Качество трека 100.0 %
CRC копии FEF7E64C
Трек не обнаружен в базе AccurateRip
Копирование... OK

Трек 6

Имя файла D:\Music Lossless\Billy's Band - «Купчино - столица мира» и другие лучшие песни (2008)\06. Зимний сон.wav

Пиковый уровень 94.4 %
Качество трека 100.0 %
CRC копии 5728FE9B
Трек не обнаружен в базе AccurateRip
Копирование... OK

Трек 7

Имя файла D:\Music Lossless\Billy's Band - «Купчино - столица мира» и другие лучшие песни (2008)\07. Парижские сезоны.wav

Пиковый уровень 95.5 %
Качество трека 100.0 %
CRC копии EF8CF77F
Трек не обнаружен в базе AccurateRip
Копирование... OK

Трек 8

Имя файла D:\Music Lossless\Billy's Band - «Купчино - столица мира» и другие лучшие песни (2008)\08. Встречай меня Москва.wav

Пиковый уровень 94.4 %
Качество трека 100.0 %
CRC копии B0DC35CF
Трек не обнаружен в базе AccurateRip
Копирование... OK

Трек 9

Имя файла D:\Music Lossless\Billy's Band - «Купчино - столица мира» и другие лучшие песни (2008)\09. Купчино - столица мира.wav

Пиковый уровень 95.1 %
Качество трека 99.9 %
CRC копии 1453BEF3
Трек не обнаружен в базе AccurateRip
Копирование... OK

Трек 10

Имя файла D:\Music Lossless\Billy's Band - «Купчино - столица мира» и другие лучшие песни (2008)\10. Где спит твое сердце.wav

Пиковый уровень 94.4 %
Качество трека 100.0 %
CRC копии 4CF8FFA7
Трек не обнаружен в базе AccurateRip
Копирование... OK

Трек 11

Имя файла D:\Music Lossless\Billy's Band - «Купчино - столица мира» и другие лучшие песни (2008)\11. Счастье есть.wav

Пиковый уровень 97.4 %
Качество трека 99.9 %
CRC копии 4DB3D9EE
Трек не обнаружен в базе AccurateRip
Копирование... OK

Трек 12

Имя файла D:\Music Lossless\Billy's Band - «Купчино - столица мира» и другие лучшие песни (2008)\12. Кладбище девичьих сердец (с Гариком Сукачевым).wav

Пиковый уровень 94.4 %
Качество трека 100.0 %
CRC копии 65B19B6C
Трек не обнаружен в базе AccurateRip
Копирование... OK

Трек 13

Имя файла D:\Music Lossless\Billy's Band - «Купчино - столица мира» и другие лучшие песни (2008)\13. Все хорошо.wav

Пиковый уровень 94.4 %
Качество трека 100.0 %
CRC копии F48570F4
Трек не обнаружен в базе AccurateRip
Копирование... OK

Трек 14

Имя файла D:\Music Lossless\Billy's Band - «Купчино - столица мира» и другие лучшие песни (2008)\14. Муз Замбела.wav

Пиковый уровень 94.4 %
Качество трека 100.0 %
CRC копии 5EED706C
Трек не обнаружен в базе AccurateRip
Копирование... OK

Ни одного трека нет в базе AccurateRip

Ошибок не произошло

Конец отчёта
REM GENRE Rock 
REM DATE 2008
REM DISCID A90D060E
REM COMMENT "ExactAudioCopy v0.99pb4"
PERFORMER "Billy's Band"
TITLE "«Купчино - столица мира» и другие лучшие песни"
FILE "Billy's Band - «Купчино - столица мира» и другие лучшие песни.flac" WAVE
TRACK 01 AUDIO
TITLE "Немного смерти, немного любви"
PERFORMER "Billy's Band"
INDEX 01 00:00:00
TRACK 02 AUDIO
TITLE "Оторвемся по-питерски"
PERFORMER "Billy's Band"
INDEX 01 03:34:13
TRACK 03 AUDIO
TITLE "В этом городе"
PERFORMER "Billy's Band"
INDEX 01 07:22:37
TRACK 04 AUDIO
TITLE "200 кубиков Агдама"
PERFORMER "Billy's Band"
INDEX 01 11:22:47
TRACK 05 AUDIO
TITLE "Зимний сон"
PERFORMER "Billy's Band"
INDEX 01 15:49:15
TRACK 06 AUDIO
TITLE "Парижские сезоны"
PERFORMER "Billy's Band"
INDEX 01 19:03:15
TRACK 07 AUDIO
TITLE "Встречай меня Москва"
PERFORMER "Billy's Band"
INDEX 01 21:36:37
TRACK 08 AUDIO
TITLE "Купчино - столица мира"
PERFORMER "Billy's Band"
INDEX 01 25:24:05
TRACK 09 AUDIO
TITLE "Где спит твое сердце"
PERFORMER "Billy's Band"
INDEX 01 30:31:67
TRACK 10 AUDIO
TITLE "Счастье есть"
PERFORMER "Billy's Band"
INDEX 01 35:26:52
TRACK 11 AUDIO
TITLE "Кладбище девичьих сердец (с Гариком Сукачевым)"
PERFORMER "Billy's Band"
INDEX 01 38:12:03
TRACK 12 AUDIO
TITLE "Все хорошо"
PERFORMER "Billy's Band"
INDEX 01 43:07:25
TRACK 13 AUDIO
TITLE "Муз Замбела"
PERFORMER "Billy's Band"
INDEX 01 47:17:22
01. Интро (3:44)
02. Бильярд (4:05)
03. Счастье есть (cool version) (4:37)
04. Коктейль из лунного света и вина (6:26)
05. Встречай меня Москва! (4:05)
06. Отоспимся в гробах (chlorophormium version) (5:33)
07. 32 рубля (bop version) (3:48)
08. Дорожная (7:35)
09. Снежная королева (6:52)
10. Оторвемся по-питерски (jazz version) (6:21)
11. В этом городе (5:50)
12. 200 см3 Агдама (5:20)
13. Выпей вина (6:06)
14. Кладбище девичьих сердец (4:33)
15. Аутро и представление (4:25)
Exact Audio Copy V1.0 beta 3 from 29. August 2011 

EAC extraction logfile from 28. November 2012, 23:30

Billy's band / Осенний алкоджаз (Live 2009)

Used drive : ASUS DRW-22B3S Adapter: 0 ID: 0

Read mode : Secure
Utilize accurate stream : Yes
Defeat audio cache : Yes
Make use of C2 pointers : No

Read offset correction : 6
Overread into Lead-In and Lead-Out : No
Fill up missing offset samples with silence : Yes
Delete leading and trailing silent blocks : No
Null samples used in CRC calculations : Yes
Used interface : Installed external ASPI interface

Used output format : User Defined Encoder
Selected bitrate : 768 kBit/s
Quality : High
Add ID3 tag : No
Command line compressor : C:\Program Files\Exact Audio Copy\FLAC\FLAC.EXE
Additional command line options : -6 -V -T "ARTIST=%artist%" -T "TITLE=%title%" -T "ALBUM=%albumtitle%" -T "DATE=%year%" -T "TRACKNUMBER=%tracknr%" -T "GENRE=%genre%" -T "COMMENT=%comment%" -T "BAND=%albuminterpret%" -T "COMPOSER=%composer%" %haslyrics%--tag-from-file=LYRICS="%lyricsfile%"%haslyrics% -T "DISCNUMBER=%cdnumber%" -T "TOTALDISCS=%totalcds%" -T "TOTALTRACKS=%numtracks%" %hascover%--picture="%coverfile%"%hascover% %source% -o %dest%

TOC of the extracted CD

Track | Start | Length | Start sector | End sector
---------------------------------------------------------
1 | 0:00.00 | 3:43.58 | 0 | 16782
2 | 3:43.58 | 4:05.33 | 16783 | 35190
3 | 7:49.16 | 4:37.31 | 35191 | 55996
4 | 12:26.47 | 6:25.65 | 55997 | 84936
5 | 18:52.37 | 4:05.24 | 84937 | 103335
6 | 22:57.61 | 5:33.07 | 103336 | 128317
7 | 28:30.68 | 3:47.67 | 128318 | 145409
8 | 32:18.60 | 7:34.62 | 145410 | 179521
9 | 39:53.47 | 6:51.45 | 179522 | 210391
10 | 46:45.17 | 6:20.54 | 210392 | 238945
11 | 53:05.71 | 5:49.70 | 238946 | 265190
12 | 58:55.66 | 5:19.71 | 265191 | 289186
13 | 64:15.62 | 6:06.00 | 289187 | 316636
14 | 70:21.62 | 4:33.01 | 316637 | 337112
15 | 74:54.63 | 4:25.20 | 337113 | 357007

Range status and errors

Selected range

Filename H:\! Мастерская\Billy's band (flac)\2009 - Осенний алкоджаз\Billy's band - Осенний алкоджаз (Live 2009).wav

Peak level 100.0 %
Extraction speed 3.6 X
Range quality 100.0 %
Test CRC 75AD5973
Copy CRC 75AD5973
Copy OK

No errors occurred

AccurateRip summary
Track 1 accurately ripped (confidence 4) [FB43CC88] (AR v1)
Track 2 accurately ripped (confidence 4) [123512E7] (AR v1)
Track 3 accurately ripped (confidence 4) [94420765] (AR v1)
Track 4 accurately ripped (confidence 4) [91646E0A] (AR v1)
Track 5 accurately ripped (confidence 4) [22CD9066] (AR v1)
Track 6 accurately ripped (confidence 4) [283495BC] (AR v1)
Track 7 accurately ripped (confidence 4) [F932CC8F] (AR v1)
Track 8 accurately ripped (confidence 4) [8B7B8C51] (AR v1)
Track 9 accurately ripped (confidence 4) [42046590] (AR v1)
Track 10 accurately ripped (confidence 4) [66A7545F] (AR v1)
Track 11 accurately ripped (confidence 4) [CF24A49B] (AR v1)
Track 12 accurately ripped (confidence 4) [F38D37E5] (AR v1)
Track 13 accurately ripped (confidence 4) [BCC92F5A] (AR v1)
Track 14 accurately ripped (confidence 4) [7372727B] (AR v1)
Track 15 accurately ripped (confidence 4) [691A81DE] (AR v1)
All tracks accurately ripped

End of status report

---- CUETools DB Plugin V2.1.3

[CTDB TOCID: 9PLVPPubgZ61ZHjQ1vcvcqFiekM-] disk not present in database, Submit result: 9PLVPPubgZ61ZHjQ1vcvcqFiekM- has been uploaded

==== Log checksum C84B0B9F9A6E4969E0806BEF7B1F94D1AB8CD4F82DAC536ABB5D9E38A66A0D53 ====
REM GENRE Alco-jazz 
REM DATE 2009
REM DISCID E212980F
REM COMMENT "ExactAudioCopy v1.0b3"
PERFORMER "Billy's band"
TITLE "Осенний алкоджаз (Live 2009)"
FILE "Billy's band - Осенний алкоджаз (Live 2009).flac" WAVE
TRACK 01 AUDIO
TITLE "Интро"
PERFORMER "Billy's band"
FLAGS DCP
INDEX 01 00:00:00
TRACK 02 AUDIO
TITLE "Бильярд"
PERFORMER "Billy's band"
FLAGS DCP
INDEX 01 03:43:58
TRACK 03 AUDIO
TITLE "Счастье есть (cool version)"
PERFORMER "Billy's band"
FLAGS DCP
INDEX 01 07:49:16
TRACK 04 AUDIO
TITLE "Коктейль из лунного света и вина"
PERFORMER "Billy's band"
FLAGS DCP
INDEX 01 12:26:47
TRACK 05 AUDIO
TITLE "Встречай меня Москва!"
PERFORMER "Billy's band"
FLAGS DCP
INDEX 01 18:52:37
TRACK 06 AUDIO
TITLE "Отоспимся в гробах (chlorophormium version)"
PERFORMER "Billy's band"
FLAGS DCP
INDEX 01 22:57:61
TRACK 07 AUDIO
TITLE "32 рубля (bop version)"
PERFORMER "Billy's band"
FLAGS DCP
INDEX 01 28:30:68
TRACK 08 AUDIO
TITLE "Дорожная"
PERFORMER "Billy's band"
FLAGS DCP
INDEX 01 32:18:60
TRACK 09 AUDIO
TITLE "Снежная королева"
PERFORMER "Billy's band"
FLAGS DCP
INDEX 01 39:53:47
TRACK 10 AUDIO
TITLE "Оторвемся по-питерски (jazz version)"
PERFORMER "Billy's band"
FLAGS DCP
INDEX 01 46:45:17
TRACK 11 AUDIO
TITLE "В этом городе"
PERFORMER "Billy's band"
FLAGS DCP
INDEX 01 53:05:71
TRACK 12 AUDIO
TITLE "200 см3 Агдама"
PERFORMER "Billy's band"
FLAGS DCP
INDEX 01 58:55:66
TRACK 13 AUDIO
TITLE "Выпей вина"
PERFORMER "Billy's band"
FLAGS DCP
INDEX 01 64:15:62
TRACK 14 AUDIO
TITLE "Кладбище девичьих сердец"
PERFORMER "Billy's band"
FLAGS DCP
INDEX 01 70:21:62
TRACK 15 AUDIO
TITLE "Аутро и представление"
PERFORMER "Billy's band"
FLAGS DCP
INDEX 01 74:54:63
01. Отоспимся в гробах (оригинальная версия) (3:31)
02. Туманная погода (5:05)
03. Некуда (3:03)
04. Мария (4:22)
05. Первый поцелуй (3:52)
06. Все здесь и сразу (3:31)
07. Где-то у края (колыбельная) (4:09)
08. Две монетки (3:03)
09. В супермаркете (3:37)
10. Налейте собаке (3:45)
11. Безголовый (сказка-фантазия) (10:09)
12. За ее окном (2:44)
13. Веселый поселок (4:05)
14. Я трава (4:30)
15. Покуда живой (3:37)
16. Гимн смерти (инструментал) (1:12)
17. Бонус: Отоспимся в гробах (сонатная версия) (4:33)
Exact Audio Copy V1.0 beta 3 from 29. August 2011 

EAC extraction logfile from 19. November 2012, 22:59

Billy's band / Блошиный рынок

Used drive : ASUS DRW-22B3S Adapter: 0 ID: 0

Read mode : Secure
Utilize accurate stream : Yes
Defeat audio cache : Yes
Make use of C2 pointers : No

Read offset correction : 6
Overread into Lead-In and Lead-Out : No
Fill up missing offset samples with silence : Yes
Delete leading and trailing silent blocks : No
Null samples used in CRC calculations : Yes
Used interface : Installed external ASPI interface

Used output format : User Defined Encoder
Selected bitrate : 768 kBit/s
Quality : High
Add ID3 tag : No
Command line compressor : C:\Program Files\Exact Audio Copy\FLAC\FLAC.EXE
Additional command line options : -6 -V -T "ARTIST=%artist%" -T "TITLE=%title%" -T "ALBUM=%albumtitle%" -T "DATE=%year%" -T "TRACKNUMBER=%tracknr%" -T "GENRE=%genre%" -T "COMMENT=%comment%" -T "BAND=%albuminterpret%" -T "COMPOSER=%composer%" %haslyrics%--tag-from-file=LYRICS="%lyricsfile%"%haslyrics% -T "DISCNUMBER=%cdnumber%" -T "TOTALDISCS=%totalcds%" -T "TOTALTRACKS=%numtracks%" %hascover%--picture="%coverfile%"%hascover% %source% -o %dest%

TOC of the extracted CD

Track | Start | Length | Start sector | End sector
---------------------------------------------------------
1 | 0:00.00 | 3:31.21 | 0 | 15845
2 | 3:31.21 | 5:04.47 | 15846 | 38692
3 | 8:35.68 | 3:03.24 | 38693 | 52441
4 | 11:39.17 | 4:22.33 | 52442 | 72124
5 | 16:01.50 | 3:51.48 | 72125 | 89497
6 | 19:53.23 | 3:31.15 | 89498 | 105337
7 | 23:24.38 | 4:08.41 | 105338 | 123978
8 | 27:33.04 | 3:03.31 | 123979 | 137734
9 | 30:36.35 | 3:36.62 | 137735 | 153996
10 | 34:13.22 | 3:45.16 | 153997 | 170887
11 | 37:58.38 | 10:08.47 | 170888 | 216534
12 | 48:07.10 | 2:44.20 | 216535 | 228854
13 | 50:51.30 | 4:04.63 | 228855 | 247217
14 | 54:56.18 | 4:29.55 | 247218 | 267447
15 | 59:25.73 | 3:37.10 | 267448 | 283732
16 | 63:03.08 | 1:12.13 | 283733 | 289145
17 | 64:15.21 | 4:33.27 | 289146 | 309647

Range status and errors

Selected range

Filename H:\! Мастерская\Billy's band (flac)\2010 - Блошиный рынок\Billy's band - Блошиный рынок.wav

Peak level 100.0 %
Extraction speed 3.5 X
Range quality 100.0 %
Test CRC 95B270D5
Copy CRC 95B270D5
Copy OK

No errors occurred

AccurateRip summary
Track 1 accurately ripped (confidence 2) [E8FDF263] (AR v1)
Track 2 accurately ripped (confidence 2) [B9DA6B61] (AR v1)
Track 3 accurately ripped (confidence 2) [54551027] (AR v1)
Track 4 accurately ripped (confidence 2) [509DD34A] (AR v1)
Track 5 accurately ripped (confidence 2) [48F5D9A9] (AR v1)
Track 6 accurately ripped (confidence 2) [DFEBE92F] (AR v1)
Track 7 accurately ripped (confidence 2) [B2649ACA] (AR v1)
Track 8 accurately ripped (confidence 2) [2C30C679] (AR v1)
Track 9 accurately ripped (confidence 2) [75A2ADED] (AR v1)
Track 10 accurately ripped (confidence 2) [3497DDE4] (AR v1)
Track 11 accurately ripped (confidence 2) [CBBA6433] (AR v1)
Track 12 accurately ripped (confidence 2) [163BC434] (AR v1)
Track 13 accurately ripped (confidence 2) [F24C3690] (AR v1)
Track 14 accurately ripped (confidence 2) [53E29D70] (AR v1)
Track 15 accurately ripped (confidence 2) [5D5953AE] (AR v1)
Track 16 accurately ripped (confidence 2) [55B4BCD5] (AR v1)
Track 17 accurately ripped (confidence 2) [2928E9A6] (AR v1)
All tracks accurately ripped

End of status report

---- CUETools DB Plugin V2.1.3

[CTDB TOCID: xC9drUzJoFJAb3OehlgggBYt_GI-] disk not present in database, Submit result: xC9drUzJoFJAb3OehlgggBYt_GI- has been uploaded

==== Log checksum 7DF8C26928654927B712AE77BAFEBE05A13E28DB3E653BBE4088F66C4FE5A9D1 ====
REM GENRE Alco-jazz 
REM DATE 2010
REM DISCID 07102011
REM COMMENT "ExactAudioCopy v1.0b3"
PERFORMER "Billy's band"
TITLE "Блошиный рынок"
FILE "Billy's band - Блошиный рынок.flac" WAVE
TRACK 01 AUDIO
TITLE "Отоспимся в гробах (оригинальная версия)"
PERFORMER "Billy's band"
INDEX 01 00:00:00
TRACK 02 AUDIO
TITLE "Туманная погода"
PERFORMER "Billy's band"
INDEX 01 03:31:21
TRACK 03 AUDIO
TITLE "Некуда"
PERFORMER "Billy's band"
INDEX 01 08:35:68
TRACK 04 AUDIO
TITLE "Мария"
PERFORMER "Billy's band"
INDEX 01 11:39:17
TRACK 05 AUDIO
TITLE "Первый поцелуй"
PERFORMER "Billy's band"
INDEX 01 16:01:50
TRACK 06 AUDIO
TITLE "Все здесь и сразу"
PERFORMER "Billy's band"
INDEX 01 19:53:23
TRACK 07 AUDIO
TITLE "Где-то у края (колыбельная)"
PERFORMER "Billy's band"
INDEX 01 23:24:38
TRACK 08 AUDIO
TITLE "Две монетки"
PERFORMER "Billy's band"
INDEX 01 27:33:04
TRACK 09 AUDIO
TITLE "В супермаркете"
PERFORMER "Billy's band"
INDEX 01 30:36:35
TRACK 10 AUDIO
TITLE "Налейте собаке"
PERFORMER "Billy's band"
INDEX 01 34:13:22
TRACK 11 AUDIO
TITLE "Безголовый (сказка-фантазия)"
PERFORMER "Billy's band"
INDEX 01 37:58:38
TRACK 12 AUDIO
TITLE "За ее окном"
PERFORMER "Billy's band"
INDEX 01 48:07:10
TRACK 13 AUDIO
TITLE "Веселый поселок"
PERFORMER "Billy's band"
INDEX 01 50:51:30
TRACK 14 AUDIO
TITLE "Я трава"
PERFORMER "Billy's band"
INDEX 01 54:56:18
TRACK 15 AUDIO
TITLE "Покуда живой"
PERFORMER "Billy's band"
INDEX 01 59:25:73
TRACK 16 AUDIO
TITLE "Гимн смерти (инструментал)"
PERFORMER "Billy's band"
INDEX 01 63:03:08
TRACK 17 AUDIO
TITLE "Бонус: Отоспимся в гробах (сонатная версия)"
PERFORMER "Billy's band"
INDEX 01 64:15:21
01. Поваляемся (3:24)
02. Счастье есть (2:48)
03. Коктейль (4:35)
04. Немного смерти (3:38)
05. Оторвемся по питерски (3:52)
06. Выпей вина (4:36)
07. 200 кубиков (4:45)
08. Абажур (4:44)
09. Купчино - столица мира (5:09)
10. Когда был один (4:11)
11. Кафе ''Последний путь'' (4:00)
12. В этом городе (4:02)
13. Stay In Line (3:47)
14. Где спит твое сердце (4:43)
15. Betty Booh (2:25)
16. Питерпитерпитер (3:48)
Exact Audio Copy V1.0 beta 6 from 9. April 2015 

EAC extraction logfile from 21. May 2015, 22:31

Billy's band / The Best

Used drive : ASUS DRW-22B3S Adapter: 1 ID: 0

Read mode : Secure
Utilize accurate stream : Yes
Defeat audio cache : Yes
Make use of C2 pointers : No

Read offset correction : 6
Overread into Lead-In and Lead-Out : No
Fill up missing offset samples with silence : Yes
Delete leading and trailing silent blocks : No
Null samples used in CRC calculations : Yes
Used interface : Native Win32 interface for Win NT & 2000

Used output format : User Defined Encoder
Selected bitrate : 768 kBit/s
Quality : High
Add ID3 tag : No
Command line compressor : C:\Program Files\Exact Audio Copy\FLAC\FLAC.EXE
Additional command line options : -V -8 -T "Genre=%genre%" -T "Artist=%artist%" -T "Title=%title%" -T "Album=%albumtitle%" -T "Date=%year%" -T "Tracknumber=%tracknr%" -T "Comment=%comment%" %source%

TOC of the extracted CD

Track | Start | Length | Start sector | End sector
---------------------------------------------------------
1 | 0:00.00 | 3:24.21 | 0 | 15320
2 | 3:24.21 | 2:48.00 | 15321 | 27920
3 | 6:12.21 | 4:34.47 | 27921 | 48517
4 | 10:46.68 | 3:38.00 | 48518 | 64867
5 | 14:24.68 | 3:52.32 | 64868 | 82299
6 | 18:17.25 | 4:35.60 | 82300 | 102984
7 | 22:53.10 | 4:44.52 | 102985 | 124336
8 | 27:37.62 | 4:43.55 | 124337 | 145616
9 | 32:21.42 | 5:08.69 | 145617 | 168785
10 | 37:30.36 | 4:11.26 | 168786 | 187636
11 | 41:41.62 | 4:00.12 | 187637 | 205648
12 | 45:41.74 | 4:02.13 | 205649 | 223811
13 | 49:44.12 | 3:47.27 | 223812 | 240863
14 | 53:31.39 | 4:43.22 | 240864 | 262110
15 | 58:14.61 | 2:24.45 | 262111 | 272955
16 | 60:39.31 | 3:47.42 | 272956 | 290022

Range status and errors

Selected range

Filename H:\g.y.m\Billy's band\2013 - The Best\Billy's band - The Best.wav

Peak level 100.0 %
Extraction speed 3.5 X
Range quality 100.0 %
Test CRC 1CB4BF49
Copy CRC 1CB4BF49
Copy OK

No errors occurred

AccurateRip summary
Track 1 accurately ripped (confidence 1) [F98A2608] (AR v2)
Track 2 accurately ripped (confidence 1) [69D834EB] (AR v2)
Track 3 accurately ripped (confidence 1) [5E6DD164] (AR v2)
Track 4 accurately ripped (confidence 1) [9324FA80] (AR v2)
Track 5 accurately ripped (confidence 1) [9498B979] (AR v2)
Track 6 accurately ripped (confidence 1) [EBBF7E0D] (AR v2)
Track 7 accurately ripped (confidence 1) [08639F12] (AR v2)
Track 8 accurately ripped (confidence 1) [66B7632D] (AR v2)
Track 9 accurately ripped (confidence 1) [0752BE7D] (AR v2)
Track 10 accurately ripped (confidence 1) [A2D7DC11] (AR v2)
Track 11 accurately ripped (confidence 1) [8FFECF54] (AR v2)
Track 12 accurately ripped (confidence 1) [EE16E0F0] (AR v2)
Track 13 accurately ripped (confidence 1) [A773EB72] (AR v2)
Track 14 accurately ripped (confidence 1) [7AEB52D5] (AR v2)
Track 15 accurately ripped (confidence 1) [988CE3C0] (AR v2)
Track 16 accurately ripped (confidence 1) [5460A304] (AR v2)
All tracks accurately ripped

End of status report

==== Log checksum 72CCC78D180DE34C83529A8E6DD2D3D2C3F3B6EB61FB2DA66E65504EFD921753 ====
REM GENRE Alco-jazz 
REM DATE 2013
REM DISCID F20F1A10
REM COMMENT "ExactAudioCopy v1.0b6"
PERFORMER "Billy's band"
TITLE "The Best"
FILE "Billy's band - The Best.flac" WAVE
TRACK 01 AUDIO
TITLE "Поваляемся"
PERFORMER "Billy's band"
INDEX 01 00:00:00
TRACK 02 AUDIO
TITLE "Счастье есть"
PERFORMER "Billy's band"
INDEX 00 03:22:22
INDEX 01 03:24:21
TRACK 03 AUDIO
TITLE "Коктейль"
PERFORMER "Billy's band"
INDEX 00 06:10:22
INDEX 01 06:12:21
TRACK 04 AUDIO
TITLE "Немного смерти"
PERFORMER "Billy's band"
INDEX 00 10:44:69
INDEX 01 10:46:68
TRACK 05 AUDIO
TITLE "Оторвемся по питерски"
PERFORMER "Billy's band"
INDEX 00 14:22:69
INDEX 01 14:24:68
TRACK 06 AUDIO
TITLE "Выпей вина"
PERFORMER "Billy's band"
INDEX 00 18:15:26
INDEX 01 18:17:25
TRACK 07 AUDIO
TITLE "200 кубиков"
PERFORMER "Billy's band"
INDEX 00 22:51:11
INDEX 01 22:53:10
TRACK 08 AUDIO
TITLE "Абажур"
PERFORMER "Billy's band"
INDEX 00 27:35:63
INDEX 01 27:37:62
TRACK 09 AUDIO
TITLE "Купчино - столица мира"
PERFORMER "Billy's band"
INDEX 00 32:19:43
INDEX 01 32:21:42
TRACK 10 AUDIO
TITLE "Когда был один"
PERFORMER "Billy's band"
INDEX 00 37:28:37
INDEX 01 37:30:36
TRACK 11 AUDIO
TITLE "Кафе ''Последний путь''"
PERFORMER "Billy's band"
INDEX 00 41:39:63
INDEX 01 41:41:62
TRACK 12 AUDIO
TITLE "В этом городе"
PERFORMER "Billy's band"
INDEX 00 45:40:00
INDEX 01 45:41:74
TRACK 13 AUDIO
TITLE "Stay In Line"
PERFORMER "Billy's band"
INDEX 00 49:42:13
INDEX 01 49:44:12
TRACK 14 AUDIO
TITLE "Где спит твое сердце"
PERFORMER "Billy's band"
INDEX 00 53:29:40
INDEX 01 53:31:39
TRACK 15 AUDIO
TITLE "Betty Booh"
PERFORMER "Billy's band"
INDEX 00 58:10:54
INDEX 01 58:14:61
TRACK 16 AUDIO
TITLE "Питерпитерпитер"
PERFORMER "Billy's band"
INDEX 00 60:37:32
INDEX 01 60:39:31
01. Поваляемся (3:24)
02. Пробитая шина (4:18)
03. Абажур (4:44)
04. На дне (5:24)
05. Лили Марлен (2:56)
06. Сначала в бездну свалился стул (4:12)
07. Звоночек (2:41)
08. Quaque (instrumental) (0:49)
09. Когда был один (4:11)
10. Stay in line (3:47)
11. Давай станцуем (3:13)
12. Zabbie yai (scat) (4:04)
13. Завтра (6:20)
14. Поваляемся (поп-версия) (4:01)
15. Silent night (traditional) (2:55)
Exact Audio Copy V1.0 beta 3 from 29. August 2011 

EAC extraction logfile from 27. May 2013, 2:44

Billy's band / Когда был один

Used drive : ASUS DRW-22B3S Adapter: 0 ID: 0

Read mode : Secure
Utilize accurate stream : Yes
Defeat audio cache : Yes
Make use of C2 pointers : No

Read offset correction : 6
Overread into Lead-In and Lead-Out : No
Fill up missing offset samples with silence : Yes
Delete leading and trailing silent blocks : No
Null samples used in CRC calculations : Yes
Used interface : Installed external ASPI interface

Used output format : User Defined Encoder
Selected bitrate : 768 kBit/s
Quality : High
Add ID3 tag : No
Command line compressor : C:\Program Files\Exact Audio Copy\FLAC\FLAC.EXE
Additional command line options : -6 -V -T "ARTIST=%artist%" -T "TITLE=%title%" -T "ALBUM=%albumtitle%" -T "DATE=%year%" -T "TRACKNUMBER=%tracknr%" -T "GENRE=%genre%" -T "COMMENT=%comment%" -T "BAND=%albuminterpret%" -T "COMPOSER=%composer%" %haslyrics%--tag-from-file=LYRICS="%lyricsfile%"%haslyrics% -T "DISCNUMBER=%cdnumber%" -T "TOTALDISCS=%totalcds%" -T "TOTALTRACKS=%numtracks%" %hascover%--picture="%coverfile%"%hascover% %source% -o %dest%

TOC of the extracted CD

Track | Start | Length | Start sector | End sector
---------------------------------------------------------
1 | 0:00.00 | 3:24.21 | 0 | 15320
2 | 3:24.21 | 4:18.11 | 15321 | 34681
3 | 7:42.32 | 4:43.54 | 34682 | 55960
4 | 12:26.11 | 5:23.67 | 55961 | 80252
5 | 17:50.03 | 2:55.65 | 80253 | 93442
6 | 20:45.68 | 4:12.32 | 93443 | 112374
7 | 24:58.25 | 2:40.50 | 112375 | 124424
8 | 27:39.00 | 0:49.37 | 124425 | 128136
9 | 28:28.37 | 4:11.27 | 128137 | 146988
10 | 32:39.64 | 3:47.26 | 146989 | 164039
11 | 36:27.15 | 3:12.71 | 164040 | 178510
12 | 39:40.11 | 4:03.38 | 178511 | 196773
13 | 43:43.49 | 6:19.68 | 196774 | 225266
14 | 50:03.42 | 4:01.34 | 225267 | 243375
15 | 54:05.01 | 2:54.74 | 243376 | 256499

Range status and errors

Selected range

Filename D:\Downloads\Billy's band (flac)\2013 - Когда был один\Billy's band - Когда был один.wav

Peak level 98.8 %
Extraction speed 6.1 X
Range quality 100.0 %
Test CRC B659879F
Copy CRC B659879F
Copy OK

No errors occurred

AccurateRip summary
Track 1 not present in database
Track 2 not present in database
Track 3 not present in database
Track 4 not present in database
Track 5 not present in database
Track 6 not present in database
Track 7 not present in database
Track 8 not present in database
Track 9 not present in database
Track 10 not present in database
Track 11 not present in database
Track 12 not present in database
Track 13 not present in database
Track 14 not present in database
Track 15 not present in database
None of the tracks are present in the AccurateRip database

End of status report

---- CUETools DB Plugin V2.1.3

[CTDB TOCID: vq7tn4uVip6Bq8zVjQgNyRG8C0o-] disk not present in database, Submit result: vq7tn4uVip6Bq8zVjQgNyRG8C0o- has been uploaded

==== Log checksum 443F6C25C8836DF98A2DA9A02FAF8895FFFDE8901BA9737C00681097E5C07A7A ====
REM GENRE Alco-jazz 
REM DATE 2013
REM DISCID BB0D5C0F
REM COMMENT "ExactAudioCopy v1.0b3"
PERFORMER "Billy's band"
TITLE "Когда был один"
FILE "Billy's band - Когда был один.flac" WAVE
TRACK 01 AUDIO
TITLE "Поваляемся"
PERFORMER "Billy's band"
INDEX 01 00:00:00
TRACK 02 AUDIO
TITLE "Пробитая шина"
PERFORMER "Billy's band"
INDEX 00 03:22:22
INDEX 01 03:24:21
TRACK 03 AUDIO
TITLE "Абажур"
PERFORMER "Billy's band"
INDEX 00 07:40:33
INDEX 01 07:42:32
TRACK 04 AUDIO
TITLE "На дне"
PERFORMER "Billy's band"
INDEX 00 12:24:12
INDEX 01 12:26:11
TRACK 05 AUDIO
TITLE "Лили Марлен"
PERFORMER "Billy's band"
INDEX 00 17:48:04
INDEX 01 17:50:03
TRACK 06 AUDIO
TITLE "Сначала в бездну свалился стул"
PERFORMER "Billy's band"
INDEX 01 20:45:68
TRACK 07 AUDIO
TITLE "Звоночек"
PERFORMER "Billy's band"
INDEX 00 24:56:26
INDEX 01 24:58:25
TRACK 08 AUDIO
TITLE "Quaque (instrumental)"
PERFORMER "Billy's band"
INDEX 00 27:37:37
INDEX 01 27:39:00
TRACK 09 AUDIO
TITLE "Когда был один"
PERFORMER "Billy's band"
INDEX 00 28:26:38
INDEX 01 28:28:37
TRACK 10 AUDIO
TITLE "Stay in line"
PERFORMER "Billy's band"
INDEX 00 32:37:65
INDEX 01 32:39:64
TRACK 11 AUDIO
TITLE "Давай станцуем"
PERFORMER "Billy's band"
INDEX 00 36:25:16
INDEX 01 36:27:15
TRACK 12 AUDIO
TITLE "Zabbie yai (scat)"
PERFORMER "Billy's band"
INDEX 00 39:38:12
INDEX 01 39:40:11
TRACK 13 AUDIO
TITLE "Завтра"
PERFORMER "Billy's band"
INDEX 00 43:41:50
INDEX 01 43:43:49
TRACK 14 AUDIO
TITLE "Поваляемся (поп-версия)"
PERFORMER "Billy's band"
INDEX 00 50:01:43
INDEX 01 50:03:42
TRACK 15 AUDIO
TITLE "Silent night (traditional)"
PERFORMER "Billy's band"
INDEX 00 54:03:02
INDEX 01 54:05:01
01. Питерпитерпитер (3:50)
02. Минус 30 (4:02)
03. Все здесь и сразу (4:17)
04. Так я падал (4:45)
05. Betty Boop (2:25)
06. Я не стеклянный (4:49)
07. Болит мир (3:30)
08. Мария, хватай детей! (5:50)
09. Поваляемся (поп-версия) (3:59)
10. Pandora's Box (3:48)
11. Простим друг друга (5:05)
12. Teenager In Ashgabat (2:34)
Exact Audio Copy V1.0 beta 3 from 29. August 2011 

EAC extraction logfile from 27. May 2013, 2:44

Billy's band / Когда был один

Used drive : ASUS DRW-22B3S Adapter: 0 ID: 0

Read mode : Secure
Utilize accurate stream : Yes
Defeat audio cache : Yes
Make use of C2 pointers : No

Read offset correction : 6
Overread into Lead-In and Lead-Out : No
Fill up missing offset samples with silence : Yes
Delete leading and trailing silent blocks : No
Null samples used in CRC calculations : Yes
Used interface : Installed external ASPI interface

Used output format : User Defined Encoder
Selected bitrate : 768 kBit/s
Quality : High
Add ID3 tag : No
Command line compressor : C:\Program Files\Exact Audio Copy\FLAC\FLAC.EXE
Additional command line options : -6 -V -T "ARTIST=%artist%" -T "TITLE=%title%" -T "ALBUM=%albumtitle%" -T "DATE=%year%" -T "TRACKNUMBER=%tracknr%" -T "GENRE=%genre%" -T "COMMENT=%comment%" -T "BAND=%albuminterpret%" -T "COMPOSER=%composer%" %haslyrics%--tag-from-file=LYRICS="%lyricsfile%"%haslyrics% -T "DISCNUMBER=%cdnumber%" -T "TOTALDISCS=%totalcds%" -T "TOTALTRACKS=%numtracks%" %hascover%--picture="%coverfile%"%hascover% %source% -o %dest%

TOC of the extracted CD

Track | Start | Length | Start sector | End sector
---------------------------------------------------------
1 | 0:00.00 | 3:24.21 | 0 | 15320
2 | 3:24.21 | 4:18.11 | 15321 | 34681
3 | 7:42.32 | 4:43.54 | 34682 | 55960
4 | 12:26.11 | 5:23.67 | 55961 | 80252
5 | 17:50.03 | 2:55.65 | 80253 | 93442
6 | 20:45.68 | 4:12.32 | 93443 | 112374
7 | 24:58.25 | 2:40.50 | 112375 | 124424
8 | 27:39.00 | 0:49.37 | 124425 | 128136
9 | 28:28.37 | 4:11.27 | 128137 | 146988
10 | 32:39.64 | 3:47.26 | 146989 | 164039
11 | 36:27.15 | 3:12.71 | 164040 | 178510
12 | 39:40.11 | 4:03.38 | 178511 | 196773
13 | 43:43.49 | 6:19.68 | 196774 | 225266
14 | 50:03.42 | 4:01.34 | 225267 | 243375
15 | 54:05.01 | 2:54.74 | 243376 | 256499

Range status and errors

Selected range

Filename D:\Downloads\Billy's band (flac)\2013 - Когда был один\Billy's band - Когда был один.wav

Peak level 98.8 %
Extraction speed 6.1 X
Range quality 100.0 %
Test CRC B659879F
Copy CRC B659879F
Copy OK

No errors occurred

AccurateRip summary
Track 1 not present in database
Track 2 not present in database
Track 3 not present in database
Track 4 not present in database
Track 5 not present in database
Track 6 not present in database
Track 7 not present in database
Track 8 not present in database
Track 9 not present in database
Track 10 not present in database
Track 11 not present in database
Track 12 not present in database
Track 13 not present in database
Track 14 not present in database
Track 15 not present in database
None of the tracks are present in the AccurateRip database

End of status report

---- CUETools DB Plugin V2.1.3

[CTDB TOCID: vq7tn4uVip6Bq8zVjQgNyRG8C0o-] disk not present in database, Submit result: vq7tn4uVip6Bq8zVjQgNyRG8C0o- has been uploaded

==== Log checksum 443F6C25C8836DF98A2DA9A02FAF8895FFFDE8901BA9737C00681097E5C07A7A ====
REM GENRE Alco-jazz 
REM DATE 2013
REM DISCID BB0D5C0F
REM COMMENT "ExactAudioCopy v1.0b3"
PERFORMER "Billy's band"
TITLE "Когда был один"
FILE "Billy's band - Когда был один.flac" WAVE
TRACK 01 AUDIO
TITLE "Поваляемся"
PERFORMER "Billy's band"
INDEX 01 00:00:00
TRACK 02 AUDIO
TITLE "Пробитая шина"
PERFORMER "Billy's band"
INDEX 00 03:22:22
INDEX 01 03:24:21
TRACK 03 AUDIO
TITLE "Абажур"
PERFORMER "Billy's band"
INDEX 00 07:40:33
INDEX 01 07:42:32
TRACK 04 AUDIO
TITLE "На дне"
PERFORMER "Billy's band"
INDEX 00 12:24:12
INDEX 01 12:26:11
TRACK 05 AUDIO
TITLE "Лили Марлен"
PERFORMER "Billy's band"
INDEX 00 17:48:04
INDEX 01 17:50:03
TRACK 06 AUDIO
TITLE "Сначала в бездну свалился стул"
PERFORMER "Billy's band"
INDEX 01 20:45:68
TRACK 07 AUDIO
TITLE "Звоночек"
PERFORMER "Billy's band"
INDEX 00 24:56:26
INDEX 01 24:58:25
TRACK 08 AUDIO
TITLE "Quaque (instrumental)"
PERFORMER "Billy's band"
INDEX 00 27:37:37
INDEX 01 27:39:00
TRACK 09 AUDIO
TITLE "Когда был один"
PERFORMER "Billy's band"
INDEX 00 28:26:38
INDEX 01 28:28:37
TRACK 10 AUDIO
TITLE "Stay in line"
PERFORMER "Billy's band"
INDEX 00 32:37:65
INDEX 01 32:39:64
TRACK 11 AUDIO
TITLE "Давай станцуем"
PERFORMER "Billy's band"
INDEX 00 36:25:16
INDEX 01 36:27:15
TRACK 12 AUDIO
TITLE "Zabbie yai (scat)"
PERFORMER "Billy's band"
INDEX 00 39:38:12
INDEX 01 39:40:11
TRACK 13 AUDIO
TITLE "Завтра"
PERFORMER "Billy's band"
INDEX 00 43:41:50
INDEX 01 43:43:49
TRACK 14 AUDIO
TITLE "Поваляемся (поп-версия)"
PERFORMER "Billy's band"
INDEX 00 50:01:43
INDEX 01 50:03:42
TRACK 15 AUDIO
TITLE "Silent night (traditional)"
PERFORMER "Billy's band"
INDEX 00 54:03:02
INDEX 01 54:05:01
info [Профиль]  [ЛС] 
Показать сообщения:    
Ответить на тему

Текущее время: 04-Дек 20:18

Часовой пояс: GMT + 4



Вы не можете начинать темы
Вы не можете отвечать на сообщения
Вы не можете редактировать свои сообщения
Вы не можете удалять свои сообщения
Вы не можете голосовать в опросах
Вы не можете прикреплять файлы к сообщениям
Вы не можете скачивать файлы