Ошибка

Что плохого в попытках подцепить девушку в подземелье? / Dungeon ni Deai o Motomeru no wa Machigatte Iru Darouka/ Danmachi [TV] [1-13 из 13] [2015] [приключения, фэнтези, романтика] [HDTVRip] [720p] [Субтитры (JAP)]

Ответить на тему
 
Автор Сообщение

anoningen

Стаж: 3 года 6 месяцев

Сообщений: 324

Самоа
Рейтинг

post 05-Июл-2015 20:39 4[+]

[Цитировать] 

Что плохого в попытках подцепить девушку в подземелье?
Dungeon ni Deai o Motomeru no wa Machigatte Iru Darouka|Danmachi
Is It Wrong to Try to Pick Up Girls in a Dungeon?
ダンジョンに出会いを求めるのは間違っているだろうか

Год выпуска:
2015 г.
Тип: TV
Жанр: приключения, фэнтези, романтика
Режиссер: Ямакава Ёсики
Автор оригинала: Омори Фудзино
Студия:
Продолжительность: 13 эп. по 25 мин
Русские субтитры: ASS, внешним файлом

Субтитры: YakuSub Studio
Редактор: Aero
Тайм-код/Оформление: KeeperRus
Переводчик/Перевод песен: Lulu
Перевод песен: Nika_Elrik

Описание:
Богам стало скучно, и они сошли в мир, оставив себе минимум атрибутов божественности – бессмертие, предвидение и чуточку силы, чтобы поддерживать своих последователей. Город Орарио, где высится огромный донжон, работает на искателей приключений самых разных рас, которые собираются в кланы, возглавляемые многочисленными богами. Отдельной силой в городе является Гильдия – она и банк, и обменное бюро, и биржа. Боги же навек избавились от скуки: ведь кроме руководства кланом, можно развивать бизнес, творить интриги, отбирать чужие человеческие игрушки – в общем, вести нормальную полноценную жизнь.
Клан Гестии, увы, невелик – сама богиня, принявшая облик юной девы, и молодой Белл, блондин с красными глазами. Когда-то Белл подался в приключенцы, чтобы бегать по уровням, бить монстров и знакомиться с девушками – и цели достиг, влюбившись по уши в Айз, «принцессу мечей» из клана Локи. Пока что герой для своей избранницы явно слабоват, зато у Белла появился повод развиваться, у Гестии – ревновать, у самой Айз – пожимать плечами, а у половины города – активно болеть за молодежь. Это еще ничего, а вот когда в дело вмешивается злокозненная богиня любви Фрейя – становится по-настоящему интересно!

Автор рипа: 초다링-Raws
Качество: HDTVRip
Формат видео: MPEG-4
Видео: AVC, 8 bits, 1280x720; 23.976 fps; 1 668 Kbps, (16:9)
Аудио: AAC, 48.0 KHz, Variable 181~283 Kbps, 2 ch
General
Complete name : G:\Anime\Dungeon ni Deai o Motomeru no wa Machigatte Iru Darouka\[초다링-Raws] Dungeon ni Deai o Motomeru no wa Machigatte Iru Darouka - 04 (MX 1280x720 x264 AAC).mp4
Format : MPEG-4
Format profile : Base Media
Codec ID : isom
File size : 318 MiB
Duration : 24mn 0s
Overall bit rate mode : Variable
Overall bit rate : 1 853 Kbps
Encoded date : UTC 2015-04-24 17:38:20
Tagged date : UTC 2015-04-24 17:38:20

Video
ID : 1
Format : AVC
Format/Info : Advanced Video Codec
Format profile : High@L4.1
Format settings, CABAC : Yes
Format settings, ReFrames : 9 frames
Codec ID : avc1
Codec ID/Info : Advanced Video Coding
Duration : 23mn 59s
Bit rate : 1 668 Kbps
Maximum bit rate : 12.8 Mbps
Width : 1 280 pixels
Height : 720 pixels
Display aspect ratio : 16:9
Frame rate mode : Variable
Frame rate : 24.463 fps
Original frame rate : 23.976 fps
Minimum frame rate : 23.976 fps
Maximum frame rate : 59.940 fps
Color space : YUV
Chroma subsampling : 4:2:0
Bit depth : 8 bits
Scan type : Progressive
Bits/(Pixel*Frame) : 0.074
Stream size : 286 MiB (90%)
Writing library : x264 core 146 r2538 121396c
Encoding settings : cabac=1 / ref=9 / deblock=1:-2:-2 / analyse=0x3:0x133 / me=umh / subme=9 / psy=1 / psy_rd=1.00:0.00 / mixed_ref=1 / me_range=32 / chroma_me=1 / trellis=2 / 8x8dct=1 / cqm=0 / deadzone=21,11 / fast_pskip=0 / chroma_qp_offset=-2 / threads=12 / lookahead_threads=2 / sliced_threads=0 / nr=0 / decimate=0 / interlaced=0 / bluray_compat=0 / constrained_intra=0 / bframes=7 / b_pyramid=2 / b_adapt=2 / b_bias=0 / direct=3 / weightb=1 / open_gop=0 / weightp=2 / keyint=240 / keyint_min=23 / scenecut=40 / intra_refresh=0 / rc_lookahead=40 / rc=crf / mbtree=1 / crf=19.0 / qcomp=0.60 / qpmin=10 / qpmax=28 / qpstep=8 / ip_ratio=1.40 / aq=1:1.00
Encoded date : UTC 2015-04-24 17:37:10
Tagged date : UTC 2015-04-24 17:38:21

Audio
ID : 2
Format : AAC
Format/Info : Advanced Audio Codec
Format profile : LC
Codec ID : 40
Duration : 24mn 0s
Bit rate mode : Variable
Bit rate : 181 Kbps
Maximum bit rate : 283 Kbps
Channel(s) : 2 channels
Channel positions : Front: L R
Sampling rate : 48.0 KHz
Compression mode : Lossy
Stream size : 31.2 MiB (10%)
Encoded date : UTC 2015-04-24 17:02:47
Tagged date : UTC 2015-04-24 17:38:21
info [Профиль]  [ЛС] 

DarkDusk

Пол: Пол:Муж

Стаж: 5 лет

Сообщений: 50

Гайана
Рейтинг

post 06-Июл-2015 00:35 (спустя 3 часа) [-]3[+]

[Цитировать] 

Прикольная анимешка, мне понравилась)

_________________
Intel® Core™ i7 CPU 950 @ 3.07GHz
10240 Мб (DDR3-1333 DDR3 SDRAM)
Nvidia GTX 680 2GB
GigaByte GA-X58A-UD3R rev2.0 (RTL) LGA1366 <X58> 4xPCI-E+GbLAN+1394 SATA RAID ATX 6DDR-III
SSD: 240 GB (OCZ Vector 150)
БП: 850W
info [Профиль]  [ЛС] 

Dartz Slackmare AmaroK

Пол: Пол:Муж

Стаж: 3 года 3 месяца

Сообщений: 101

СССР
Рейтинг

post 06-Июл-2015 01:29 (спустя 53 минуты) [-]0[+]

[Цитировать] 

Когда второй сезон?
info [Профиль]  [ЛС] 

Weo

Пол: Пол:Муж

Стаж: 5 лет 5 месяцев

Сообщений: 171

Россия
Рейтинг

post 06-Июл-2015 02:22 (спустя 53 минуты) [-]-3[+]

[Цитировать] 

Почему когда я вижу какую-то башню на обложке то сразу думаю о SAO?
info [Профиль]  [ЛС] 

Flin23

Пол: Пол:Муж

Стаж: 2 года 7 месяцев

Сообщений: 19

Рейтинг

post 06-Июл-2015 20:21 (спустя 17 часов) [-]0[+]

[Цитировать] 

Какое то мморпг. УГ короч.
info [Профиль]  [ЛС] 

Kolyabus

Пол: Пол:Муж

Стаж: 7 лет 2 месяца

Сообщений: 93

Россия
Рейтинг

post 06-Июл-2015 21:47 (спустя 1 час 25 минут) [-]0[+]

[Цитировать] 

Ну разок посмотреть вполне можно, тем более на безрыбие
info [Профиль]  [ЛС] 

Smertanosec

Пол: Пол:Муж

Стаж: 2 года

Сообщений: 28

Австралия
Рейтинг

post 07-Июл-2015 13:42 (спустя 15 часов) [-]0[+]

[Цитировать] 

как только не изголяются над переводом названия этого анимэ. сколько можно то?
info [Профиль]  [ЛС] 

anoningen

Стаж: 3 года 6 месяцев

Сообщений: 324

Самоа
Рейтинг

post 07-Июл-2015 21:00 (спустя 7 часов) [-]0[+]

[Цитировать] 

Smertanosec писал(а):

как только не изголяются над переводом названия этого анимэ. сколько можно то?
Ну, этот вариант наиболее близок к оригиналу.
info [Профиль]  [ЛС] 

Guideman32

Пол: Пол:Муж

Стаж: 7 лет 4 месяца

Сообщений: 18

Россия
Рейтинг

post 07-Июл-2015 22:59 (спустя 1 час 59 минут) [-]0[+]

[Цитировать] 

Минутка брюзжания и негатива. Честно говоря после просмотра такое ощущение что SAO и ещё пару аниме сжевали в сопливый комок и выплюнули как есть. Всё очень скомкано и недосказано, персонажи и сюжет пресные как тесто без соли. Жевание соплей активно длилось почти до финальных серий и закончилось кое-как. Имхо 4 из 10 и то только за рисовку.
info [Профиль]  [ЛС] 

Mitsuko

Пол: Пол:Муж

Стаж: 4 года 3 месяца

Сообщений: 17

Рейтинг

post 14-Июл-2015 05:46 (спустя 6 дней) [-]0[+]

[Цитировать] 

Смотрел когда то Башню Друаги. Отличная анимеха была. САО так себе. Будем посмотреть сей шедевр.
info [Профиль]  [ЛС] 

Servant

Пол: Пол:Муж

Стаж: 6 лет 7 месяцев

Сообщений: 9

Россия
Рейтинг

post 27-Апр-2016 20:58 (спустя 9 месяцев 13 дней) [-]0[+]

[Цитировать] 

Бедняги убогие... САО, САО, САО... Это для вас эталон качества аниме про ммо? Мда... Для тех кто по САО соплями мажет... САО ваш, к вашему изумлению, НИ-ФИ-ГА НЕ ПЕРВАЯ АНИМЕХА ПРО ММО... На моей памяти, первой была HACK.. хотя уверен что и до хака было что-то... Так что нечего тут САОшничать... Анимеха прикольная, ждемс второй сезон )

_________________
http://guildwars-2.ru/guild-wars-2-na-russkom-petit...nanet/#more-2639 Заходим, читаем, подписываем!!!
info [Профиль]  [ЛС] 
Показать сообщения:    
Ответить на тему

Текущее время: 04-Дек 22:22

Часовой пояс: GMT + 4



Вы не можете начинать темы
Вы не можете отвечать на сообщения
Вы не можете редактировать свои сообщения
Вы не можете удалять свои сообщения
Вы не можете голосовать в опросах
Вы не можете прикреплять файлы к сообщениям
Вы не можете скачивать файлы