Ошибка

Судьба: Ночь схватки. Клинков бесконечный край/ Fate/Stay Night Unlimited Blade Works [TV-1] [1-12+1 из 12+1] [2014] [приключения, мистика] [HDTVRip] [720p] [Субтитры (JAP)]

Ответить на тему
 
Автор Сообщение

anoningen

Стаж: 3 года 6 месяцев

Сообщений: 326

Самоа
Рейтинг

post 28-Июн-2015 12:39 1[+]

[Цитировать] 

Судьба: Ночь схватки. Клинков бесконечный край
Fate/Stay Night Unlimited Blade Works

Год выпуска:
2014 г.
Тип: TV
Жанр: приключения, фэнтези
Режиссер: Миура Такахиро
Автор оригинала: Насу Киноко
Студия:
Продолжительность: 12 эп. по 25 мин + пролог 48 мин
Русские субтитры: ASS, внешним файлом

Субтитры: [GMC & Shimizu]
Тайм-код/Оформление: DarkScorpio
Редактор: kujoyam
Редактор: Nerevar [GMC]
Переводчик: Sovereign [GMC]

Описание:
Простой японский подросток Сиро Эмия жил-поживал в родном городке Фуюки и вдруг оказался втянут в войну каких-то Мастеров-магов за Святой Грааль. С одной стороны, магом парень был средненьким, и шансы выжить выглядели неважно. Но ведь старуха с косой где-то там, а собственный боец – белокурая красавица Сэйбер – уже здесь, и общаться с ней куда приятнее! Да и «королева школы» Рин Тосака внезапно оказалась коллегой-Мастером и мировой девчонкой, а что ее Слуга Арчер – на редкость вредный тип, так можно и потерпеть.

Конечно, главный приз Сиро был не нужен, убивать кого-то он категорически не хотел, но «на войне, как на войне». Что нельзя предотвратить – нужно возглавить, вот наш герой и «подписался на Грааль». Все было бы просто здорово, если бы Эмия-кун сидел спокойно и работал «вторым номером» – так нет же, постоянно лезет куда не надо. Вы что-то подобное уже смотрели? Тогда учтите, что Сиро здесь гораздо активнее, Сэйбер – человечнее, Рин – живее, Арчер – загадочнее, а Лансер – благороднее. И вообще, это уже другая история!


Автор рипа: Raws-4U
Качество: HDTVRip
Формат видео: MPEG-4
Видео: AVC, 8 bits, 1280x720; 23.976 fps; 1785 Kbps, (16:9)
Аудио: AAC, 48.0 KHz, Variable ~252 Kbps, 2 ch
General
Complete name : G:\Anime\Fate Stay Night Unlimited Blade Works (TV-1)\[Raws-4U] Fate/stay night [Unlimited Blade Works] 第01話 「#00 プロローグ」 (MX 1280x720 x264).mp4
Format : MPEG-4
Format profile : Base Media
Codec ID : isom
File size : 701 MiB
Duration : 48mn 0s
Overall bit rate mode : Variable
Overall bit rate : 2 041 Kbps
Encoded date : UTC 2014-10-05 03:59:33
Tagged date : UTC 2014-10-05 03:59:33

Video
ID : 1
Format : AVC
Format/Info : Advanced Video Codec
Format profile : High@L4.1
Format settings, CABAC : Yes
Format settings, ReFrames : 4 frames
Codec ID : avc1
Codec ID/Info : Advanced Video Coding
Duration : 47mn 59s
Bit rate : 1 785 Kbps
Maximum bit rate : 11.1 Mbps
Width : 1 280 pixels
Height : 720 pixels
Display aspect ratio : 16:9
Frame rate mode : Constant
Frame rate : 23.976 fps
Color space : YUV
Chroma subsampling : 4:2:0
Bit depth : 8 bits
Scan type : Progressive
Bits/(Pixel*Frame) : 0.081
Stream size : 613 MiB (87%)
Writing library : x264 core 138 r2358 9e941d1
Encoding settings : cabac=1 / ref=4 / deblock=1:-1:-1 / analyse=0x3:0x113 / me=umh / subme=9 / psy=1 / psy_rd=0.60:0.20 / mixed_ref=1 / me_range=32 / chroma_me=1 / trellis=2 / 8x8dct=1 / cqm=0 / deadzone=21,11 / fast_pskip=0 / chroma_qp_offset=-3 / threads=6 / lookahead_threads=1 / sliced_threads=0 / nr=0 / decimate=0 / interlaced=0 / bluray_compat=0 / constrained_intra=0 / bframes=3 / b_pyramid=0 / b_adapt=2 / b_bias=0 / direct=3 / weightb=1 / open_gop=0 / weightp=2 / keyint=240 / keyint_min=1 / scenecut=50 / intra_refresh=0 / rc=crf / mbtree=0 / crf=20.0 / qcomp=0.60 / qpmin=0 / qpmax=28 / qpstep=8 / ip_ratio=1.40 / pb_ratio=1.30 / aq=1:0.50
Encoded date : UTC 2014-10-05 03:59:25
Tagged date : UTC 2014-10-05 03:59:35
Color range : Limited
Color primaries : BT.709
Transfer characteristics : BT.709
Matrix coefficients : BT.709

Audio
ID : 2
Format : AAC
Format/Info : Advanced Audio Codec
Format profile : LC
Codec ID : 40
Duration : 48mn 0s
Bit rate mode : Variable
Bit rate : 252 Kbps
Maximum bit rate : 259 Kbps
Channel(s) : 2 channels
Channel positions : Front: L R
Sampling rate : 48.0 KHz
Compression mode : Lossy
Stream size : 86.6 MiB (12%)
Encoded date : UTC 2014-10-05 03:59:34
Tagged date : UTC 2014-10-05 03:59:35

Menu
00:00:00.000 : Avant
00:02:16.003 : A-part
00:11:35.028 : B-part
00:23:59.038 : C-part
00:34:52.057 : D-part
00:45:05.036 : ED
00:47:35.052 : Next
от http://tapochek.net/viewtopic.php?t=157106 наличие оригинальной звуковой дорожки
Как и одноименный фильм, данный сериал использует сюжетную основу второго пути визуальной новеллы Fate/Stay Night, в то время как сериал 2006 г. от Studio Deen смешивал мотивы всех трех путей. Unlimited Blade Works, название второго пути игры, не имеет канонического русского перевода; ближе всего по смыслу стоят выражения «бесконечный мир клинков» или «кузница бесконечных клинков».
info [Профиль]  [ЛС] 

Lіght

Пол: Пол:Муж

Стаж: 5 лет 4 месяца

Сообщений: 1051

Украина
Рейтинг

post 28-Июн-2015 13:57 (спустя 1 час 18 минут) [-]0[+]

[Цитировать] 

Цитата:

[Raws-4U] (MX 1280x720 x264)
HDTVRip это.

_________________
info [Профиль]  [ЛС] 

anoningen

Стаж: 3 года 6 месяцев

Сообщений: 326

Самоа
Рейтинг

post 28-Июн-2015 14:32 (спустя 34 минуты) [-]0[+]

[Цитировать] 

Lіght писал(а):

Цитата:

[Raws-4U] (MX 1280x720 x264)
HDTVRip это.
Исправил. Сбило с толку название темы на каге.
info [Профиль]  [ЛС] 

Zekat

Пол: Пол:Муж

Стаж: 5 лет 5 месяцев

Сообщений: 324

Рейтинг

post 28-Июн-2015 15:03 (спустя 31 минута) [-]0[+]

[Цитировать] 

Скажите это переиздание аниме 2006 года?

_________________
info [Профиль]  [ЛС] 

anoningen

Стаж: 3 года 6 месяцев

Сообщений: 326

Самоа
Рейтинг

post 28-Июн-2015 15:10 (спустя 7 минут) [-]0[+]

[Цитировать] 

Zekat писал(а):

Скажите это переиздание аниме 2006 года?
Нет, это экранизация другой ветки новеллы. Справка под спойлером.
info [Профиль]  [ЛС] 

RenegadeAD

Пол: Пол:Муж

Стаж: 6 лет 6 месяцев

Сообщений: 302

Россия
Рейтинг

post 28-Июн-2015 15:44 (спустя 33 минуты) [-]-1[+]

[Цитировать] 

Огромнейшее спасибо за сабы.

добавлено спустя 7 минут 19 секунд:

Так 12 серия была финалом получается ...

_________________
info [Профиль]  [ЛС] 

anoningen

Стаж: 3 года 6 месяцев

Сообщений: 326

Самоа
Рейтинг

post 28-Июн-2015 16:01 (спустя 16 минут) [-]0[+]

[Цитировать] 

RenegadeAD писал(а):



Так 12 серия была финалом получается ...
Финалом первого сезона. Сегодня уже должна выйти последняя серия второго сезона.
info [Профиль]  [ЛС] 

RenegadeAD

Пол: Пол:Муж

Стаж: 6 лет 6 месяцев

Сообщений: 302

Россия
Рейтинг

post 28-Июн-2015 16:13 (спустя 12 минут) [-]-1[+]

[Цитировать] 

vbhtoseu42 писал(а):

RenegadeAD писал(а):



Так 12 серия была финалом получается ...
Финалом первого сезона. Сегодня уже должна выйти последняя серия второго сезона.
Оу так это первый сезон Улыбаюсь Извините - только скачалось )) Эх жаль, чет на второй сезон сабы не переводят совсем. Вот интересно, что в 13 серии будет. Фильм то вроде по этой арке снят и что там можно придумать после 12 интересно. В игру играть так лениво (

_________________
info [Профиль]  [ЛС] 

anoningen

Стаж: 3 года 6 месяцев

Сообщений: 326

Самоа
Рейтинг

post 28-Июн-2015 17:10 (спустя 57 минут) [-]0[+]

[Цитировать] 

RenegadeAD писал(а):

Оу так это первый сезон Улыбаюсь Извините - только скачалось )) Эх жаль, чет на второй сезон сабы не переводят совсем. Вот интересно, что в 13 серии будет. Фильм то вроде по этой арке снят и что там можно придумать после 12 интересно. В игру играть так лениво (
Советы поддерживают онгоинг, но у них только хардсаб.
info [Профиль]  [ЛС] 
Показать сообщения:    
Ответить на тему

Текущее время: 06-Дек 18:11

Часовой пояс: GMT + 4



Вы не можете начинать темы
Вы не можете отвечать на сообщения
Вы не можете редактировать свои сообщения
Вы не можете удалять свои сообщения
Вы не можете голосовать в опросах
Вы не можете прикреплять файлы к сообщениям
Вы не можете скачивать файлы