Ошибка

Факап, или Хуже не бывает / Nicht mein Tag (Петер Торварт) [2014, Боевик, комедия, криминал, приключения, BDRemux 1080i]

Ответить на тему
 
Автор Сообщение

karlmenni

Пол: Пол:Муж

Стаж: 1 год 10 месяцев

Сообщений: 1235

Россия
Рейтинг

post 13-Июн-2015 18:04 1[+]

[Цитировать] 

Факап, или Хуже не бывает / Nicht mein Tag


Год выпуска: 2014
Страна: Германия
Жанр: Боевик, комедия, криминал, приключения
Продолжительность: 01:50:17
Перевод: Дублированный - iTunes
Субтитры:

В ролях: Мориц Бляйбтрой, Аксель Штайн, Жасмин Герат, Анна Мария Мюэ, Неля Кипер, Бен Рюдингер, Касэм Ходжа, Беким Гури, Тобиас Нид
Режиссёр: Петер Торварт
Тилль Райнер – банковский клерк, чья жизнь довольно обычна, если не сказать скучна. Брак, работа, жизнь в небольшом городке. Огонь страсти в отношениях с женой Мириам давно утих, поглощенный повседневной рутиной. Разве это именно то, о чем он так мечтал? Герой фильма сокрушается и не знает, как изменить свою жизнь. Как вдруг, она меняется сама.В один прекрасный день Тилль становится заложником. Вооруженный грабитель банка Наппо, далеко не профессионал своего дела, берет его на прицел. Теперь эти двое героев комедийного криминального боевика «Не мой день» становятся неразрывно связаны и вынуждены провести вместе следующие 48 часов, на протяжении которых сюжет фильма ожидает немало неожиданных поворотов.
Качество: BDRemux 1080i
Формат: MKV
Видео кодек: AVC
Видео: AVC, 1920x1080 (16:9), 25.000 fps, 29.2 Mbps (0.564 bit/pixel)
Аудио 1: AC-3, 48.0 KHz, 6 ch, 384 Kbps, CBR
Аудио 2: AC-3, 48.0 KHz, 6 ch, 640 Kbps, CBR (German)



Код:

 Общее
Уникальный идентификатор                 : 196312098873153503736426971278034851747 (0x93B055C05DD9A630A22C363C096FD7A3)
Полное имя                               : C:\MyFiles\FILM\Nicht_mein_Tag_BDRemux_iTunes.mkv
Формат                                   : Matroska
Версия формата                           : Version 4 / Version 2
Размер файла                             : 23,8 Гбайт
Продолжительность                        : 1 ч. 50 м.
Режим общего битрейта                    : Переменный
Общий поток                              : 30,9 Мбит/сек
Название фильма                          : Nicht_mein_Tag_BDRemux_iTunes
Дата кодирования                         : UTC 2015-06-13 13:02:15
Программа кодирования                    : mkvmerge v5.9.0 ('On The Loose') built on Dec 31 2012 17:36:59
Библиотека кодирования                   : libebml v1.3.0 + libmatroska v1.4.0

Видео
Идентификатор                            : 1
Формат                                   : AVC
Формат/Информация                        : Advanced Video Codec
Профиль формата                          : High@L4.1
Параметр CABAC формата                   : Да
Параметр ReFrames формата                : 4 кадра
Режим смешивания                         : Header stripping
Идентификатор кодека                     : V_MPEG4/ISO/AVC
Продолжительность                        : 1 ч. 50 м.
Вид битрейта                             : Переменный
Битрейт                                  : 29,2 Мбит/сек
Максимальный битрейт                     : 33,0 Мбит/сек
Ширина                                   : 1920 пикселей
Высота                                   : 1080 пикселей
Соотношение сторон                       : 16:9
Режим частоты кадров                     : Постоянный
Частота кадров                           : 25,000 кадров/сек
Цветовое пространство                    : YUV
Субдискретизация насыщенности            : 4:2:0
Битовая глубина                          : 8 бит
Тип развёртки                            : MBAFF
Бит/(Пиксели*Кадры)                      : 0.564
Размер потока                            : 22,5 Гбайт (95%)
Default                                  : Да
Forced                                   : Нет

Аудио #1
Идентификатор                            : 2
Формат                                   : AC-3
Формат/Информация                        : Audio Coding 3
Расширение режима                        : CM (complete main)
Параметр Endianness формата              : Big
Режим смешивания                         : Header stripping
Идентификатор кодека                     : A_AC3
Продолжительность                        : 1 ч. 50 м.
Вид битрейта                             : Постоянный
Битрейт                                  : 384 Кбит/сек
Каналы                                   : 6 каналов
Расположение каналов                     : Front: L C R, Side: L R, LFE
Частота                                  : 48,0 КГц
Битовая глубина                          : 16 бит
Метод сжатия                             : С потерями
Размер потока                            : 303 Мбайт (1%)
Заголовок                                : iTunes
Default                                  : Да
Forced                                   : Нет

Аудио #2
Идентификатор                            : 3
Формат                                   : AC-3
Формат/Информация                        : Audio Coding 3
Расширение режима                        : CM (complete main)
Параметр Endianness формата              : Big
Режим смешивания                         : Header stripping
Идентификатор кодека                     : A_AC3
Продолжительность                        : 1 ч. 50 м.
Вид битрейта                             : Постоянный
Битрейт                                  : 640 Кбит/сек
Каналы                                   : 6 каналов
Расположение каналов                     : Front: L C R, Side: L R, LFE
Частота                                  : 48,0 КГц
Битовая глубина                          : 16 бит
Метод сжатия                             : С потерями
Размер потока                            : 505 Мбайт (2%)
Язык                                     : German
Default                                  : Нет
Forced                                   : Нет


info [Профиль]  [ЛС] 

karlmenni

Пол: Пол:Муж

Стаж: 1 год 10 месяцев

Сообщений: 1235

Россия
Рейтинг

post 13-Июн-2015 20:51 (спустя 2 часа 47 минут) [-]2[+]

[Цитировать] 

Прикольная комедия. Сам смотрел, получил кучу позитивных эмоций. Улыбаюсь

_________________
info [Профиль]  [ЛС] 

DeusNeko

Пол: Пол:Муж

Стаж: 7 лет 1 месяц

Сообщений: 1381

Предупреждений: 1

Россия
Рейтинг

post 13-Июн-2015 21:31 (спустя 39 минут) [-]1[+]

[Цитировать] 

Ну, смотреть пока особо нечего, попробуем.

Цитата:

криминального боевика «Не мой день»

Цитата:

Nicht mein Tag

Цитата:

Факап, или Хуже не бывает
Что за наркоман это придумывает там?

_________________
Matrix Mini-I Pro -> Questyle CMA800R -> Sennheiser HD 280/PSB M4U 1/Beyerdynamic DT 770 Pro/Beyerdynamic T90/HiFiMAN HE-400
info [Профиль]  [ЛС] 

karlmenni

Пол: Пол:Муж

Стаж: 1 год 10 месяцев

Сообщений: 1235

Россия
Рейтинг

post 13-Июн-2015 21:52 (спустя 21 минута) [-]1[+]

[Цитировать] 

DeusNeko

выкладывал этот релиз на другом трекере полгода назад, он назывался Не мой день / Nicht mein Tag .
Сейчас увидел этот релиз в iTunes, сам офигел, что он так называется, главное, что даже на Кинопоиске он назывался "Не мой день". http://i.imgur.com/IzdpPBv.jpg  А сейчас называется http://i.imgur.com/ZactRAt.jpg 

_________________
info [Профиль]  [ЛС] 

Omega448

Пол: Пол:Муж

Стаж: 6 лет 2 месяца

Сообщений: 113

Россия
Рейтинг

post 13-Июн-2015 22:06 (спустя 14 минут) [-]-12[+]

[Цитировать] 

Кроме комиссара Рекса ничего стоящего так и не смогли снять, каким боком это творение называется комедией вообще не понятно, после 30 минут просмотра просто захотелось выключить, фильм вообще никакой.
info [Профиль]  [ЛС] 

elderded

Пол: Пол:Муж

Стаж: 4 года 3 месяца

Сообщений: 230

Белоруссия
Рейтинг

post 13-Июн-2015 22:11 (спустя 5 минут) [-]3[+]

[Цитировать] 

Omega448 писал(а):

Кроме комиссара Рекса ничего стоящего так и не смогли снять, каким боком это творение называется комедией вообще не понятно, после 30 минут просмотра просто захотелось выключить, фильм вообще никакой.
какой комиссар рекс? что ты несешь. причем тут он? хотя если ты делаешь такие сравнения, то всё с тобой ясно.
фильм динамичный, смотреть легко

_________________
минус - это как плюс. его тоже надо заработать.
info [Профиль]  [ЛС] 

Винни Пух

Пол: Пол:Муж

Стаж: 4 года 6 месяцев

Сообщений: 106

Россия
Рейтинг

post 14-Июн-2015 03:19 (спустя 5 часов) [-]0[+]

[Цитировать] 

Фильм класс! Очень понравился. Раздающему огромное СПАСИБО!!!!

_________________
info [Профиль]  [ЛС] 

Founder

Стаж: 7 лет 8 месяцев

Сообщений: 61

Рейтинг

post 14-Июн-2015 07:55 (спустя 4 часа) [-]1[+]

[Цитировать] 

набор штампов , но да - смотрится ненапряжно
info [Профиль]  [ЛС] 

Omega448

Пол: Пол:Муж

Стаж: 6 лет 2 месяца

Сообщений: 113

Россия
Рейтинг

post 14-Июн-2015 15:43 (спустя 7 часов) [-]-3[+]

[Цитировать] 

elderded писал(а):

Omega448 писал(а):

Кроме комиссара Рекса ничего стоящего так и не смогли снять, каким боком это творение называется комедией вообще не понятно, после 30 минут просмотра просто захотелось выключить, фильм вообще никакой.
какой комиссар рекс? что ты несешь. причем тут он? хотя если ты делаешь такие сравнения, то всё с тобой ясно.
фильм динамичный, смотреть легко
какой комиссар Рекс? с тобой тоже всё понятно школоло. kolob_105
info [Профиль]  [ЛС] 

DeusNeko

Пол: Пол:Муж

Стаж: 7 лет 1 месяц

Сообщений: 1381

Предупреждений: 1

Россия
Рейтинг

post 14-Июн-2015 18:45 (спустя 3 часа) [-]0[+]

[Цитировать] 

Далеко не шедевр, но вполне неплохое кинцо, хотя КОМЕДИЕЙ (или там боевиком) я бы его не назвал, скорее приключениями с элементами комедии на довольно избитую тему стокгольмского синдрома. Но так или иначе - о просмотре не жалею, свою долю фана получил. Крепкие 6.75/10.

_________________
Matrix Mini-I Pro -> Questyle CMA800R -> Sennheiser HD 280/PSB M4U 1/Beyerdynamic DT 770 Pro/Beyerdynamic T90/HiFiMAN HE-400
info [Профиль]  [ЛС] 

post 06-Фев-2016 12:21 (спустя 7 месяцев 21 день) [-]0[+]

Топик был перенесен из форума Новинки 2014-2015 (Web-DL, DVD, HD DVD, Blu-ray, HD Rips) в форум Зарубежное кино | HD DVD и Blu-ray

LyaKich
 
Показать сообщения:    
Ответить на тему

Текущее время: 04-Дек 08:03

Часовой пояс: GMT + 4



Вы не можете начинать темы
Вы не можете отвечать на сообщения
Вы не можете редактировать свои сообщения
Вы не можете удалять свои сообщения
Вы не можете голосовать в опросах
Вы не можете прикреплять файлы к сообщениям
Вы не можете скачивать файлы