Ошибка

Сладкая жизнь (Сезон 2 серии 1 из 8) (Андрей Джунковский) [2015, драма, комедия WEB-DL (720p)]

Ответить на тему
 
Автор Сообщение

Shell

Пол: Пол:Муж

Стаж: 6 лет 5 месяцев

Сообщений: 322

Россия
Рейтинг

post 25-Май-2015 19:49 0[+]

[Цитировать] 

Сладкая жизнь
«Сериал о любви в эпоху кризиса»



год выпуска: 2015
Страна: Россия
Жанр: Драма, комедия
Продолжительность: 00:46:44
Режиссер: Андрей Джунковский
В ролях:
  • Антон Денисенко, Марта Носова, Лукерья Ильяшенко, Роман Маякин, Мария Шумакова, Анастасия Меськова, Никита Панфилов

Описание: «Сладкая жизнь» — это сериал про любовь и про наше время. Время, показанное через страсть и через предательство, через иронию и страхи, через богатство и бедность, через счастье и одиночество. Второй сезон продолжает откровенную историю про поколение тридцатилетних в современной России. Единственное, в чем по-настоящему успешны герои «Сладкой жизни», — это в умении создавать себе проблемы. Все они стремятся жить только так, как хочется им. Кто-то никак не может отпустить прошлое, кто-то хочет красивой жизни, а кто-то секса на стороне. Создатели сериала не боятся показывать зрителям чужую жизнь такой, какая она есть, во всем ее очаровании и несовершенстве

Качество: WEB-DL
Формат: mkv
Видео кодек: AVC
Аудио кодек: AC-3
Видео: 1280x720, 25.00fps, 3289 Кбит/сек
Аудио: 2 ch, 192 kbps, 4410 KHz


Семпл
 
Полное имя : Сладкая жизнь. Сезон 2 2015.WEB-DL.720p\Серия 1.mkv
Формат : Matroska
Версия формата : Version 4 / Version 2
Размер файла : 1,07 Гбайт
Продолжительность : 46 м.
Общий поток : 3289 Кбит/сек
Дата кодирования : UTC 2015-05-25 20:40:52
Программа кодирования : mkvmerge v7.9.0 ('Birds') 64bit
Библиотека кодирования : libebml v1.3.1 + libmatroska v1.4.2
DURATION : 00:46:44.262000000
NUMBER_OF_FRAMES : 80513
NUMBER_OF_BYTES : 67302294
_STATISTICS_WRITING_APP : mkvmerge v7.9.0 ('Birds') 64bit
_STATISTICS_WRITING_DATE_UTC : 2015-05-25 20:40:52
_STATISTICS_TAGS : BPS DURATION NUMBER_OF_FRAMES NUMBER_OF_BYTES

Видео
Идентификатор : 1
Формат : AVC
Формат/Информация : Advanced Video Codec
Профиль формата : High@L4
Параметр CABAC формата : Да
Параметр ReFrames формата : 8 кадров
Идентификатор кодека : V_MPEG4/ISO/AVC
Продолжительность : 46 м.
Битрейт : 3032 Кбит/сек
Ширина : 1280 пикселей
Высота : 720 пикселей
Соотношение сторон : 16:9
Режим частоты кадров : Постоянный
Частота кадров : 25,000 кадров/сек
Цветовое пространство : YUV
Субдискретизация насыщенности : 4:2:0
Битовая глубина : 8 бит
Тип развёртки : Прогрессивная
Бит/(Пиксели*Кадры) : 0.132
Размер потока : 1014 Мбайт (92%)
Библиотека кодирования : x264 core 142 r2455 021c0dc
Настройки программы : cabac=1 / ref=8 / deblock=1:-1:-1 / analyse=0x3:0x133 / me=umh / subme=9 / psy=1 / psy_rd=1.00:0.15 / mixed_ref=1 / me_range=16 / chroma_me=1 / trellis=2 / 8x8dct=1 / cqm=0 / deadzone=21,11 / fast_pskip=1 / chroma_qp_offset=-3 / threads=24 / lookahead_threads=2 / sliced_threads=0 / nr=0 / decimate=1 / interlaced=0 / bluray_compat=0 / constrained_intra=0 / bframes=3 / b_pyramid=2 / b_adapt=2 / b_bias=0 / direct=3 / weightb=1 / open_gop=0 / weightp=2 / keyint=100 / keyint_min=10 / scenecut=40 / intra_refresh=0 / rc_lookahead=60 / rc=crf / mbtree=1 / crf=17.0 / qcomp=0.60 / qpmin=0 / qpmax=69 / qpstep=4 / vbv_maxrate=3600 / vbv_bufsize=3600 / crf_max=0.0 / nal_hrd=none / filler=0 / ip_ratio=1.40 / aq=1:1.00
Default : Да
Forced : Нет

Аудио
Идентификатор : 2
Формат : AC-3
Формат/Информация : Audio Coding 3
Расширение режима : CM (complete main)
Параметр Endianness формата : Big
Идентификатор кодека : A_AC3
Продолжительность : 46 м.
Вид битрейта : Постоянный
Битрейт : 192 Кбит/сек
Каналы : 2 канала
Расположение каналов : Front: L R
Частота : 44,1 КГц
Битовая глубина : 16 бит
Метод сжатия : С потерями
Размер потока : 64,2 Мбайт (6%)
Default : Да
Forced : Нет
info [Профиль]  [ЛС] 

L

Пол: Пол:Муж

Стаж: 6 лет 7 месяцев

Сообщений: 10812

Украина
Рейтинг

post 26-Май-2015 07:40 (спустя 11 часов) [-]0[+]

[Цитировать] 

 !  L:
Вам необходимо получить статус Аплоадера, чтобы иметь права для замены торрента в разделе. Каждый раз при обновлении переносить в раздел анонсов не будем.
Станете аплоадером - начнем проверку.

_________________
info [Профиль]  [ЛС] 
Показать сообщения:    
Ответить на тему

Текущее время: 07-Дек 22:25

Часовой пояс: GMT + 4



Вы не можете начинать темы
Вы не можете отвечать на сообщения
Вы не можете редактировать свои сообщения
Вы не можете удалять свои сообщения
Вы не можете голосовать в опросах
Вы не можете прикреплять файлы к сообщениям
Вы не можете скачивать файлы