Ошибка

Президент (Саида Медведева) [2015, Документальный, история, познавательный, HDTV 1080i]

Ответить на тему
 
Автор Сообщение

karlmenni

Пол: Пол:Муж

Стаж: 1 год 11 месяцев

Сообщений: 1235

Россия
Рейтинг

post 29-Апр-2015 19:10 1[+]

[Цитировать] 

Президент


Год выпуска: 2015
Страна: Россия
Жанр: Документальный, история, познавательный
Продолжительность: 02:31:10
Перевод: Не требуется
Субтитры:
Нет
В ролях: Владимир Соловьев, Дмитрий Полонский, Сергей Степашин, Захар Прилепин, Мадлен Олбрайт, Сергей Иванов, Сергей Шойгу, Дмитрий Козак, Герман Греф, Алексей Миллер
Режиссёр: Саида Медведева
Фильм приурочен к 15-летию нахождения во власти Владимира Путина. Картина охватывает период с августа 1999 года до сегодняшних дней. В фильме рассказано о пути, который страна вместе с президентом прошла за последние 15 лет.

Помимо рассказа Путина о 15-ти годах во главе России, в фильм включены также интервью с представителями политических и бизнес-элит страны, документальная хроника, уникальная съемка личных операторов Владимира Путина. Все это позволило воссоздать и раскрыть подробности минувшего времени, поворотные моменты большой политики, которые решали судьбу мира, и рассказать о том, куда президент ведет Россию сегодня.
Качество: HDTV 1080i
Формат: MPEG-TS
Видео кодек: AVC
Видео: AVC, 1920x1080 (16:9), 25.000 fps, 8 244 Kbps (0.159 bit/pixel)
Аудио 1: MP2, 48.0 KHz, 2 ch, 224 Kbps, CBR (Russian)




Релиз: GeneralFilm.

Код:

 Общее
Идентификатор                            : 1 (0x1)
Полное имя                               : C:\MyFiles\FILM\Prezident.HDTV(1080i).GeneralFilm.ts
Формат                                   : MPEG-TS
Размер файла                             : 9,41 Гбайт
Продолжительность                        : 2 ч. 31 м.
Режим общего битрейта                    : Переменный
Общий поток                              : 8910 Кбит/сек

Видео
Идентификатор                            : 41 (0x29)
Идентификатор меню                       : 60 (0x3C)
Формат                                   : AVC
Формат/Информация                        : Advanced Video Codec
Профиль формата                          : High@L4.0
Параметр CABAC формата                   : Да
Параметр ReFrames формата                : 3 кадра
Идентификатор кодека                     : 27
Продолжительность                        : 2 ч. 31 м.
Битрейт                                  : 8244 Кбит/сек
Ширина                                   : 1920 пикселей
Высота                                   : 1080 пикселей
Соотношение сторон                       : 16:9
Частота кадров                           : 25,000 кадров/сек
Стандарт вещания                         : Component
Цветовое пространство                    : YUV
Субдискретизация насыщенности            : 4:2:0
Битовая глубина                          : 8 бит
Тип развёртки                            : Чересстрочная
Порядок развёртки                        : Верхнее поле первое
Бит/(Пиксели*Кадры)                      : 0.159
Размер потока                            : 8,70 Гбайт (93%)
Основные цвета                           : BT.709
Характеристики трансфера                 : BT.709
Коэффициенты матрицы                     : BT.709
colour_range                             : Limited

Аудио
Идентификатор                            : 44 (0x2C)
Идентификатор меню                       : 60 (0x3C)
Формат                                   : MPEG Audio
Версия формата                           : Version 1
Профиль формата                          : Layer 2
Идентификатор кодека                     : 3
Продолжительность                        : 2 ч. 31 м.
Вид битрейта                             : Постоянный
Битрейт                                  : 224 Кбит/сек
Каналы                                   : 2 канала
Частота                                  : 48,0 КГц
Метод сжатия                             : С потерями
Задержка видео                           : -40 мс.
Размер потока                            : 242 Мбайт (3%)
Язык                                     : Russian


info [Профиль]  [ЛС] 

osparagus

Пол: Пол:Муж

Стаж: 6 лет 10 месяцев

Сообщений: 204

Россия
Рейтинг

post 29-Апр-2015 21:34 (спустя 2 часа 23 минуты) [-]-21[+]

[Цитировать] 

02:31:10 смотреть на эль президенто и слушать "эмм..мнем..мем..мя.мя.."?! Нет, спасибо.
info [Профиль]  [ЛС] 

Concept23

Пол: Пол:Муж

Стаж: 6 лет 11 месяцев

Сообщений: 23

Россия
Рейтинг

post 29-Апр-2015 22:08 (спустя 34 минуты) [-]9[+]

[Цитировать] 

osparagus писал(а):

02:31:10 смотреть на эль президенто и слушать "эмм..мнем..мем..мя.мя.."?! Нет, спасибо.
"Не смотрел, но осуждаю"
info [Профиль]  [ЛС] 

docklan

Пол: Пол:Муж

Стаж: 2 года 11 месяцев

Сообщений: 118

Ирландия
Рейтинг

post 29-Апр-2015 22:23 (спустя 14 минут) [-]4[+]

[Цитировать] 

отличный фильм, всем рекомендую к просмотру!

_________________
Quis custodiet ipsos custodes?
info [Профиль]  [ЛС] 

tooday1

Пол: Пол:Муж

Стаж: 4 года 1 месяц

Сообщений: 177

Предупреждений: 2

Рейтинг

post 30-Апр-2015 01:20 (спустя 2 часа 56 минут) [-]0[+]

[Цитировать] 

Concept23 писал(а):

osparagus писал(а):

02:31:10 смотреть на эль президенто и слушать "эмм..мнем..мем..мя.мя.."?! Нет, спасибо.
"Не смотрел, но осуждаю"
Полностью подтверждаю !

_________________
Сижу читаю то что писал раньше и понимаю какой я был дурак...и самое страшное то что потом я буду так же думать про то что пишу сейчас..
info [Профиль]  [ЛС] 

game47vbg

Пол: Пол:Муж

Стаж: 6 лет 2 месяца

Сообщений: 388

Россия
Рейтинг

post 30-Апр-2015 01:26 (спустя 5 минут) [-]4[+]

[Цитировать] 

karlmenni писал(а):

Жанр: Документальный, история, познавательный Пропаганда.
Поправьте. Улыбаюсь

_________________
info [Профиль]  [ЛС] 

zqwjzqwj

Стаж: 6 лет 9 месяцев

Сообщений: 303

Россия
Рейтинг

post 30-Апр-2015 07:54 (спустя 6 часов) [-]4[+]

[Цитировать] 

Очередная тупая путинская пропаганда о том как у нас все хорошо и какой он молодец?
info [Профиль]  [ЛС] 

yuriy555

Пол: Пол:Муж

Стаж: 4 года 11 месяцев

Сообщений: 55

Украина
Рейтинг

post 30-Апр-2015 17:31 (спустя 9 часов) [-]0[+]

[Цитировать] 

Размер видео это чей то комплекс ?
Эту рожу уже видел, и зачем качество как в HDporno чтобы видно щитину на пи"де ?
Зделайте пожалуйста приемлемый размер, в своё время неплохо поржал над "крым-путь на родину" надеюсь этот фильм настроение подымет не хуже.
info [Профиль]  [ЛС] 

karlmenni

Пол: Пол:Муж

Стаж: 1 год 11 месяцев

Сообщений: 1235

Россия
Рейтинг

post 03-Май-2015 22:55 (спустя 3 дня) [-]0[+]

[Цитировать] 

yuriy555
Официальное название "комплекса" - FullHD

_________________
info [Профиль]  [ЛС] 

Toasty_RUS

Стаж: 4 года 1 месяц

Сообщений: 33

Россия
Рейтинг

post 09-Май-2015 21:53 (спустя 5 дней) [-]1[+]

[Цитировать] 

Смотрю, как из злых, оскаленных мордашек не особо умных персон льётся желчь, прям уффф. И всё ещё больше хочу посмотреть. Интересно, если я напишу, что Путин - тцар, бок, и батюшка, вы вены вскроете? Да даже если и нет, как не крути, на данный момент лучшим есть и пока-что остается Володя Путин Улыбаюсь
info [Профиль]  [ЛС] 
Показать сообщения:    
Ответить на тему

Текущее время: 06-Дек 12:16

Часовой пояс: GMT + 4



Вы не можете начинать темы
Вы не можете отвечать на сообщения
Вы не можете редактировать свои сообщения
Вы не можете удалять свои сообщения
Вы не можете голосовать в опросах
Вы не можете прикреплять файлы к сообщениям
Вы не можете скачивать файлы