Ошибка

Том и Джерри: Комедийное шоу / The Tom and Jerry Comedy Show / Серии: 1-15 из 15 (Гвен Ветцлер / Gwen Wetzler) [1980-1982, Приключения, комедия, семейный, DVB] Dub + MVO

Ответить на тему
 
Автор Сообщение

DARKAN

Пол: Пол:Муж

Стаж: 3 года 4 месяца

Сообщений: 56

Россия
Рейтинг

post 21-Апр-2015 21:58 2[+]

[Цитировать] 

Том и Джерри: Комедийное шоу

Оригинальное название: The Tom and Jerry Comedy Show
Года выпуска: 1980-1982
Страна: США
Жанр: Приключения, комедия, семейный
Серии: 1-15 из 15
Продолжительность: 00:21:06
Переводы:
  • Профессиональный (полное дублирование) [Объединение Русский Дубляж],
  • Профессиональный (многолосый закадровый) [РТР].

Режиссёр:
  • Гвен Ветцлер / Gwen Wetzler

Описание:
Сюжет большинства серий мультсериала основан на тщетных попытках Тома поймать мышонка на увечьях и разрушениях, которые из всего этого следуют. Поскольку в некоторых сериях персонажи довольно мирно уживаются между собой, остаётся непонятным, за что Том постоянно преследует Джерри. Надо признать, что погони доставляют удовольствие им обоим.
Качество: DVB
Формат: TS
Данные видео: AVC, 720x576, 25.000 fps, 3.124 Kbps
Данные аудио: MP2, 48.0 KHz, 2 ch, 256 Kbps
01. Farewell, Sweet Mouse (перевод ОРД) / Droopy's Restless Night (перевод ОРД) / New Mouse in the House (перевод ОРД)
02. Heavy Booking (перевод ОРД) / Matterhorn Droopy (перевод ОРД) / The Puppy Sitter (перевод ОРД)
03. Most Wanted Cat (перевод ОРД) / Pest in the West (перевод ОРД) / Cat in the Fiddle (перевод ОРД)
04. Invasion of the Mouse Snatchers (перевод ОРД) / The Incredible Droop (перевод ОРД) / The Plaid Baron Strikes Again (перевод ОРД)
05. Incredible Shrinking Cat (перевод ОРД) / Scared Bear (перевод ОРД) / When the Rooster Crows (перевод ОРД)
06. School for Cats (перевод ОРД) / Disco Droopy (перевод ОРД) / Pied Piper Puss (перевод ОРД)
07. Under the Big Top (перевод ОРД) / Lumber Jerks (перевод ОРД) / Gopher It, Tom (перевод ОРД)
08. Snowbrawl (перевод ОРД) / Getting the Foot (перевод ОРД) / Kitty Hawk Kitty (перевод ОРД)
09. Get Along, Little Jerry (перевод РТР) / Star-Crossed Wolf (перевод РТР) / Spike's Birthday (перевод РТР)
10. No Museum Peace (перевод РТР) / A Day at the Bakery (перевод ОРД) / Mouse Over Miami (перевод РТР)
11. The Trojan Dog (перевод ОРД) / Foreign Legion Droopy (перевод ОРД) / Pie in the Sky (перевод ОРД)
12. Save That Mouse (перевод ОРД) / Old Mother Hubbard (перевод ОРД) / Say What? (перевод ОРД)
13. Superstocker (перевод РТР) / Droopy's Good Luck Charm (перевод РТР) / The Great Mousini (перевод ОРД)
14. Jerry's Country Cousin (перевод ОРД) / The Great Diamond Heist (перевод ОРД) / Mechanical Failure (перевод ОРД)
15. A Connecticut Mouse in King Arthur's Cork (перевод ОРД, закадровый) / The Great Train Rubbery (перевод ОРД) / Stage Struck (перевод ОРД)
General 
ID : 1 (0x1)
Complete name : D:\IPTV\Том и Джерри. Комедийное шоу. (СТС)\The Tom and Jerry Comedy Show.e01.ts
Format : MPEG-TS
File size : 537 MiB
Duration : 21mn 6s
Overall bit rate mode : Variable
Overall bit rate : 3 558 Kbps

Video
ID : 67 (0x43)
Menu ID : 1 (0x1)
Format : AVC
Format/Info : Advanced Video Codec
Format profile : High@L3.0
Format settings, CABAC : Yes
Format settings, ReFrames : 3 frames
Codec ID : 27
Duration : 21mn 6s
Bit rate : 3 124 Kbps
Width : 720 pixels
Height : 576 pixels
Display aspect ratio : 4:3
Frame rate : 25.000 fps
Standard : Component
Color space : YUV
Chroma subsampling : 4:2:0
Bit depth : 8 bits
Scan type : Interlaced
Scan order : Top Field First
Bits/(Pixel*Frame) : 0.301
Stream size : 471 MiB (88%)
Color primaries : BT.601 PAL
Transfer characteristics : BT.470 System B, BT.470 System G
Matrix coefficients : BT.601
Color range : Limited

Audio
ID : 68 (0x44)
Menu ID : 1 (0x1)
Format : MPEG Audio
Format version : Version 1
Format profile : Layer 2
Codec ID : 3
Duration : 21mn 6s
Bit rate mode : Constant
Bit rate : 256 Kbps
Channel(s) : 2 channels
Sampling rate : 48.0 KHz
Compression mode : Lossy
Stream size : 38.6 MiB (7%)
Language : English
info [Профиль]  [ЛС] 

Sensationss

Пол: Пол:Муж

Стаж: 4 года 11 месяцев

Сообщений: 437

Россия
Рейтинг

post 22-Апр-2015 10:21 (спустя 12 часов) [-]9[+]

[Цитировать] 

Детство детство ты куда ушло....
info [Профиль]  [ЛС] 

tankisto

Пол: Пол:Муж

Стаж: 7 лет 6 месяцев

Сообщений: 442

Россия
Рейтинг

post 22-Апр-2015 14:49 (спустя 4 часа) [-]3[+]

[Цитировать] 

Sensationss писал(а):

Детство детство ты куда ушло....
А мне сразу Супонев вспоминается и мультики по воскресеньям в 9.30
info [Профиль]  [ЛС] 

Vaduha

Стаж: 4 года 1 месяц

Сообщений: 54

Рейтинг

post 22-Апр-2015 20:41 (спустя 5 часов) [-]0[+]

[Цитировать] 

До сих пор хранится коллекция мультиков Том и Джерри на касетах.
info [Профиль]  [ЛС] 

Zewss

Пол: Пол:Муж

Стаж: 6 лет

Сообщений: 47

СССР
Рейтинг

post 23-Апр-2015 04:06 (спустя 7 часов) [-]1[+]

[Цитировать] 

Лучше мультфильмы Уильяма Ханны и Джозефа Барберы смотреть до бесконечности. Этот сериал выглядит сильно вторично. Хотя дети смотрят

_________________
cout<<"i5-2500K 4.5 Ghz";
cout<<"MSI GTX 980";
cout<<"16 Gb RAM 1.6 Ghz";
cout<<"SSD 120 Gb";
info [Профиль]  [ЛС] 

DARKAN

Пол: Пол:Муж

Стаж: 3 года 4 месяца

Сообщений: 56

Россия
Рейтинг

post 30-Дек-2015 18:33 (спустя 8 месяцев 7 дней) [-]0[+]

[Цитировать] 

Торрент обновлён. Теперь 9-я и 10-я серии имеют более полный видеоряд по причине восстановления полных версий заставок мини-мультов Том и Джерри.
info [Профиль]  [ЛС] 

JACKIE

Пол: Пол:Муж

Стаж: 7 лет 8 месяцев

Сообщений: 460

Россия
Рейтинг

post 30-Дек-2015 21:08 (спустя 2 часа 35 минут) [-]1[+]

[Цитировать] 

Zewss писал(а):

Лучше мультфильмы Уильяма Ханны и Джозефа Барберы смотреть до бесконечности.
+1 остальные шлак и недоработка в рисованности

_________________
info [Профиль]  [ЛС] 
Показать сообщения:    
Ответить на тему

Текущее время: 05-Дек 02:28

Часовой пояс: GMT + 4



Вы не можете начинать темы
Вы не можете отвечать на сообщения
Вы не можете редактировать свои сообщения
Вы не можете удалять свои сообщения
Вы не можете голосовать в опросах
Вы не можете прикреплять файлы к сообщениям
Вы не можете скачивать файлы