Ошибка

Круто сваренные / Lat sau san taam / Hard Boiled (Джон Ву) [1992 г., боевик, триллер, драма, криминал, BDRip]

Ответить на тему
 
Автор Сообщение

Dark_Mesiah

Пол: Пол:Муж

Стаж: 3 года 3 месяца

Сообщений: 315

Предупреждений: 1

Россия
Рейтинг

post 17-Апр-2015 15:19 1[+]

[Цитировать] 


Круто сваренные / Lat sau san taam / Hard Boiled
«Он полицейский, и у него есть ум, отвага и инстинкт убийства...»

Год выпуска: 1992
Страна: Гонконг
Жанр: боевик, триллер, драма, криминал
Продолжительность: 02:08:07
Перевод: Профессиональный (двухголосый)
Язык субтитров: нет
Режиссер: Джон Ву
Сценарий: Гордон Чан, Бэрри Вонг, Джон Ву
Продюсер: Тэжэньцэ Чан, Линда Кук, Эми Чин
Оператор: Винг-Хунг Вонг
Композитор: Майкл Гиббс
Художник: Джеймс Люн, Джанет Чан, Брюс Ю
Монтаж: Джек Ах, Кит-Вай Кай, Джон Ву
В ролях:
Чоу Юнь-Фат, Тони Люн Чу Вай, Тереза Мо, Филип Чан, Филип Квок, Энтони Вонг Чау-Санг, Хой-Шан Кван, Вэй Тунг, Боуи Лам, Менг Ло
Бюджет: $4 500 000
Мировая премьера: 16 апреля 1992
Возраст: 18+ зрителям достигшим 18 лет
Рейтинг MPAA: R, лицам до 17 лет обязательно присутствие взрослого
Описание:
Гонконгская полиция пытается противостоять триадам, контролирующим незаконный оборот оружия. Главный герой, полицейский по прозвищу Текила, хочет в одиночку обезвредить преступников и отомстить за убитого напарника…

Качество: BDRip (источник: Blu-Ray/1080p)
Формат: AVI
Видео кодек: XviD
Аудио кодек: AC3
Видео: 704x384 (1.83:1), 23.976 fps, XviD build 50 ~2046 kbps avg, 0.32 bit/pixel
Аудио: 48 kHz, AC3 Dolby Digital, 3/2 (L,C,R,l,r) + LFE ch, ~384.00 kbps avg
Общее
Формат : AVI
Формат/Информация : Audio Video Interleave
Профиль формата : OpenDML
Размер файла : 2,18 Гбайт
Продолжительность : 2 ч. 8 м.
Общий поток : 2438 Кбит/сек
Название фильма : Kruto.svarennye.1992.RUS.BDRip.XviD.AC3.
Программа кодирования : VirtualDubMod 1.5.10.2 (build 2542/release)

Видео
Идентификатор : 0
Формат : MPEG-4 Visual
Профиль формата : Advanced Simple@L5
Параметр BVOP формата : 1
Параметр QPel формата : Нет
Параметр GMC формата : Без точки перехода
Параметр матрицы формата : Выборочная
Идентификатор кодека : XVID
Идентификатор кодека/Подсказка : XviD
Продолжительность : 2 ч. 8 м.
Битрейт : 2042 Кбит/сек
Ширина : 704 пикселя
Высота : 384 пикселя
Соотношение сторон : 1,85:1
Частота кадров : 23,976 кадра/сек
Цветовое пространство : YUV
Субдискретизация насыщенности : 4:2:0
Битовая глубина : 8 бит
Тип развёртки : Прогрессивная
Метод сжатия : С потерями
Бит/(Пиксели*Кадры) : 0.315
Размер потока : 1,83 Гбайт (84%)
Библиотека кодирования : XviD 1.2.1 (UTC 2008-12-04)

Аудио
Идентификатор : 1
Формат : AC-3
Формат/Информация : Audio Coding 3
Расширение режима : CM (complete main)
Параметр Endianness формата : Big
Идентификатор кодека : 2000
Продолжительность : 2 ч. 8 м.
Вид битрейта : Постоянный
Битрейт : 384 Кбит/сек
Каналы : 6 каналов
Расположение каналов : Front: L C R, Side: L R, LFE
Частота : 48,0 КГц
Битовая глубина : 16 бит
Метод сжатия : С потерями
Размер потока : 352 Мбайт (16%)
Выравнивание : Разделение по промежуткам
Продолжительность промежутка : 42 мс. (1,00 видеокадр)
Время предзагрузки промежутка : 500 мс.
info [Профиль]  [ЛС] 

post 17-Апр-2015 16:15 (спустя 56 минут) [-]0[+]

Топик был перенесен из форума Зарубежное кино | Rips в форум Азиатское кино | Rips

BZzz
 

ruby666

Пол: Пол:Муж

Стаж: 2 года

Сообщений: 81

Украина
Рейтинг

post 17-Апр-2015 16:39 (спустя 1 час 20 минут) [-]4[+]

[Цитировать] 

когда-то Джон Ву был крут.
info [Профиль]  [ЛС] 

mant1s

Пол: Пол:Муж

Стаж: 4 года

Сообщений: 15

Россия
Рейтинг

post 17-Апр-2015 22:59 (спустя 6 часов) [-]0[+]

[Цитировать] 

Один из лучших фильмов детства, спасибо
info [Профиль]  [ЛС] 

razzar

Пол: Пол:Муж

Стаж: 7 лет 2 месяца

Сообщений: 10

СССР
Рейтинг

post 18-Апр-2015 05:26 (спустя 6 часов) [-]1[+]

[Цитировать] 

К просмотру обязателен!!! Очень сильное кино!!!
info [Профиль]  [ЛС] 
Показать сообщения:    
Ответить на тему

Текущее время: 06-Дек 14:19

Часовой пояс: GMT + 4



Вы не можете начинать темы
Вы не можете отвечать на сообщения
Вы не можете редактировать свои сообщения
Вы не можете удалять свои сообщения
Вы не можете голосовать в опросах
Вы не можете прикреплять файлы к сообщениям
Вы не можете скачивать файлы