Ошибка

Кенгуру Джек / Kangaroo Jack (Дэвид МакНэлли) [2003 г., комедия, приключения, криминал, WEB-DL 720]

Ответить на тему
 
Автор Сообщение

markfiter

Пол: Пол:Муж

Стаж: 4 года 11 месяцев

Сообщений: 2722

Германия
Рейтинг

post 11-Апр-2015 10:18 2[+]

[Цитировать] 

Кенгуру Джек / Kangaroo Jack

Год выпуска: 2003
Страна: США, Австралия
Жанр: комедия, приключения, криминал
Продолжительность: 01:29:03
Перевод 1: Профессиональный (полное дублирование)
Перевод 2: Профессиональный (многоголосый закадровый)
Перевод 3: Авторский (одноголосый закадровый) Е. Рудой
Субтитры: SRT - русские, украинские, английские
Оригинальная аудиодорожка: английская

Режиссер: Дэвид МакНэлли

В ролях: Джерри О`Коннелл, Энтони Андерсон, Эстелла Уоррен, Кристофер Уокен, Мартон Чокаш, Дайэн Кэннон, Майкл Шэннон, Билл Хантер, Дэвид Нгумбуджарра, Mark Sellito

Описание: Чарли и Луис, молодые неудачники-американцы, вечно попадающие впросак, посланы крутым мафиози в Австралию с конвертом, где содержалось 50 тысяч долларов. Но по дурости и исключительно ради хохмы они нацепили куртку с деньгами в кармане на сбитого их же машиной кенгуру, который вдруг ожил и сбежал со всем содержимым в неизвестном направлении. Обоим горе-перевозчикам предстоит не только разыскать исчезнувшего сумчатого животного, но и попытаться избежать кары со стороны местного наёмного убийцы, которому они должны были передать этот пакет, а главное — уклониться от специального посланника мафии из Америки, направленного с целью расправы над двумя заполошными типами, приносящими одни несчастья. Так что поимка ими кенгуру с деньгами — вовсе не случайный выигрыш в казино (то есть джекпот), а отчаянная попытка остаться в живых, хотя нельзя не признать, что без большого везения обоим точно бы не поздоровилось.

Качество: WEB-DL (720p)
Формат: MKV
Видео кодек: H.264
Аудио кодек: AC3
Видео: 1280x532, 3980 Kbps, 23.976 fps
Аудио 1: 48 kHz, 5.1 channels, ~384 Kbps [Dub]
Аудио 2: 48 kHz, 5.1 channels, ~448 Kbps [MVO]
Аудио 3: 48 kHz, 5.1 channels, ~448 Kbps [VO]
Аудио 4: 48 kHz, 5.1 channels, ~448 Kbps [eng]
Общее
Уникальный идентификатор : 190882278536072665783066836654774329270 (0x8F9A96F095FA3C03BA1CDF222A489FB6)
Формат : Matroska
Версия формата : Version 4 / Version 2
Размер файла : 3,62 Гбайт
Продолжительность : 1 ч. 29 м.
Общий поток : 5824 Кбит/сек
Дата кодирования : UTC 2014-10-31 19:11:45
Программа кодирования : mkvmerge v7.3.0 ('Nouages') 32bit built on Oct 22 2014 18:44:01
Библиотека кодирования : libebml v1.3.0 + libmatroska v1.4.1
Attachements : poster.jpg

Видео
Идентификатор : 1
Формат : AVC
Формат/Информация : Advanced Video Codec
Профиль формата : Main@L3.1
Параметр CABAC формата : Нет
Параметр ReFrames формата : 2 кадра
Параметр GOP формата : N=1
Идентификатор кодека : V_MPEG4/ISO/AVC
Продолжительность : 1 ч. 29 м.
Битрейт : 3980 Кбит/сек
Ширина : 1280 пикселей
Высота : 532 пикселя
Соотношение сторон : 2,40:1
Режим частоты кадров : Постоянный
Частота кадров : 23,976 кадра/сек
Цветовое пространство : YUV
Субдискретизация насыщенности : 4:2:0
Битовая глубина : 8 бит
Тип развёртки : Прогрессивная
Бит/(Пиксели*Кадры) : 0.244
Размер потока : 2,48 Гбайт (68%)
Язык : English
Default : Да
Forced : Нет
Основные цвета : BT.709
Характеристики трансфера : BT.709
Коэффициенты матрицы : BT.709
colour_range : Limited

Аудио #1
Идентификатор : 2
Формат : AC-3
Формат/Информация : Audio Coding 3
Расширение режима : CM (complete main)
Параметр Endianness формата : Big
Идентификатор кодека : A_AC3
Продолжительность : 1 ч. 29 м.
Вид битрейта : Постоянный
Битрейт : 384 Кбит/сек
Каналы : 6 каналов
Расположение каналов : Front: L C R, Side: L R, LFE
Частота : 48,0 КГц
Битовая глубина : 16 бит
Метод сжатия : С потерями
Размер потока : 245 Мбайт (7%)
Заголовок : DUB
Язык : Russian
Default : Да
Forced : Нет

Аудио #2
Идентификатор : 3
Формат : AC-3
Формат/Информация : Audio Coding 3
Расширение режима : CM (complete main)
Параметр Endianness формата : Big
Идентификатор кодека : A_AC3
Продолжительность : 1 ч. 29 м.
Вид битрейта : Постоянный
Битрейт : 448 Кбит/сек
Каналы : 6 каналов
Расположение каналов : Front: L C R, Side: L R, LFE
Частота : 48,0 КГц
Битовая глубина : 16 бит
Метод сжатия : С потерями
Размер потока : 285 Мбайт (8%)
Заголовок : MVO
Язык : Russian
Default : Нет
Forced : Нет

Аудио #3
Идентификатор : 4
Формат : AC-3
Формат/Информация : Audio Coding 3
Расширение режима : CM (complete main)
Параметр Endianness формата : Big
Идентификатор кодека : A_AC3
Продолжительность : 1 ч. 29 м.
Вид битрейта : Постоянный
Битрейт : 448 Кбит/сек
Каналы : 6 каналов
Расположение каналов : Front: L C R, Side: L R, LFE
Частота : 48,0 КГц
Битовая глубина : 16 бит
Метод сжатия : С потерями
Размер потока : 285 Мбайт (8%)
Заголовок : AVO (Rudoi)
Язык : Russian
Default : Нет
Forced : Нет

Аудио #4
Идентификатор : 5
Формат : AC-3
Формат/Информация : Audio Coding 3
Расширение режима : CM (complete main)
Параметр Endianness формата : Big
Идентификатор кодека : A_AC3
Продолжительность : 1 ч. 29 м.
Вид битрейта : Постоянный
Битрейт : 448 Кбит/сек
Каналы : 6 каналов
Расположение каналов : Front: L C R, Side: L R, LFE
Частота : 48,0 КГц
Битовая глубина : 16 бит
Метод сжатия : С потерями
Размер потока : 285 Мбайт (8%)
Заголовок : Original
Язык : English
Default : Нет
Forced : Нет

Текст #1
Идентификатор : 6
Формат : UTF-8
Идентификатор кодека : S_TEXT/UTF8
Идентификатор кодека/Информация : UTF-8 Plain Text
Заголовок : v.1
Язык : Russian
Default : Нет
Forced : Нет

Текст #2
Идентификатор : 7
Формат : UTF-8
Идентификатор кодека : S_TEXT/UTF8
Идентификатор кодека/Информация : UTF-8 Plain Text
Заголовок : v.2
Язык : Russian
Default : Нет
Forced : Нет

Текст #3
Идентификатор : 8
Формат : UTF-8
Идентификатор кодека : S_TEXT/UTF8
Идентификатор кодека/Информация : UTF-8 Plain Text
Язык : Ukrainian
Default : Нет
Forced : Нет

Текст #4
Идентификатор : 9
Формат : UTF-8
Идентификатор кодека : S_TEXT/UTF8
Идентификатор кодека/Информация : UTF-8 Plain Text
Язык : English
Default : Нет
Forced : Нет

Меню
00:00:00.000 : en:When Charlie Met Louis
00:03:28.000 : en:Totally Legit Favor (Rock Da Juice)
00:07:54.000 : en:They Didn't Know!
00:10:12.000 : en:Missioin Down Under
00:13:55.000 : en:In the Bathroom
00:16:23.000 : en:Security Switch
00:18:41.000 : en:Jackie Legs (Down Under)
00:21:41.000 : en:Jumping Jacket Chase (Start the Commotion)
00:26:29.000 : en:Old Alice Inn
00:29:59.000 : en:Honey of a Plan
00:34:02.000 : en:Stages 1 to 4
00:38:48.000 : en:Due East - Like Brooklyn
00:42:13.000 : en:Desert Storms
00:43:48.000 : en:The Real Mirage (Hey Sexy Lady)
00:47:41.000 : en:Kangaroo Dreams
00:49:17.000 : en:A Habit of Camels
00:53:34.000 : en:Getting and Losing a Ride (Round Round)
00:56:05.000 : en:Ants in His Pants
00:58:30.000 : en:There Goes the Moment
01:01:23.000 : en:Mr. Smith Catches Up
01:03:56.000 : en:Turn 'em Around
01:06:07.000 : en:Hot Stuff
01:06:52.000 : en:Mutually Agitated
01:11:03.000 : en:Tight Fit
01:12:57.000 : en:Frankie Goes Long
01:17:04.000 : en:Intimate Moments
01:21:23.000 : en:The Star (Soak Up the Sun)
01:23:41.000 : en:End Credits (Hey Baby)
info [Профиль]  [ЛС] 
Показать сообщения:    
Ответить на тему

Текущее время: 04-Дек 10:11

Часовой пояс: GMT + 4



Вы не можете начинать темы
Вы не можете отвечать на сообщения
Вы не можете редактировать свои сообщения
Вы не можете удалять свои сообщения
Вы не можете голосовать в опросах
Вы не можете прикреплять файлы к сообщениям
Вы не можете скачивать файлы