Ошибка

Исход: Цари и боги / Exodus: Gods and Kings (Ридли Скотт) [2014, боевик, драма, приключения, BDRip 1080p 3D ][Горизонтальная аноморфная стереопара]

Ответить на тему
 
Автор Сообщение

koss555

Пол: Пол:Муж

Стаж: 4 года 11 месяцев

Сообщений: 1549

Россия
Рейтинг

post 02-Апр-2015 15:35 0[+]

[Цитировать] 

Исход: Цари и боги / Exodus: Gods and Kings
«Он бросил вызов империи и изменил мир»

Год выпуска: 2014
Страна: Великобритания , США , Испания
Жанр: боевик, драма, приключения
Продолжительность: 02:30:20
Перевод: Дублированное [Лицензия]
Субтитры: Russian (Forced, iTunes),Russian (iTunes), Ukrainian (iTunes), Russian (Commentary), English, English (SDH), English (Commentary)

Режиссер: Ридли Скотт
Сценарий: Адам Купер, Билл Колладж, Джефри Кейн
Продюсер: Питер Чернин, Марк Хаффам, Майкл Шефер
Оператор: Дариуш Вольски
Композитор: Альберто Иглесиас
Художник: Артур Макс, Рави Бансал, Алекс Камерон
Монтаж: Билли Рич

Описание: Ветхозаветная история о великом пророке Моисее и освобождении еврейского народа из египетского плена. Моисей появился на свет в те времена, когда фараон приказал убивать всех новорожденных мальчиков еврейского происхождения. Чтобы спасти его, мать положила малыша в корзину из тростника и отправила вниз по Нилу. Ребенка нашла дочь фараона, которая усыновила его и растила рядом с Рамсесом — будущим фараоном. Много лет спустя, став мужчиной, Моисей бежит из Египта, а затем возвращается туда по велению Господа, чтобы избавить свой народ от оков рабства…

Бюджет: $140 000 000
Сборы в США: $65 014 513
Сборы в мире: + $203 017 315 = $268 031 828
Сборы в России: $17 497 162
Зрители: 3.04 млн
Премьера (мир): 3 декабря 2014
Премьера (РФ): 1 января 2015, «Двадцатый Век Фокс СНГ» 3D
Релиз на DVD: 9 апреля 2015«Двадцатый Век Фокс СНГ»
Релиз на Blu-Ray: 9 апреля 2015 «Двадцатый Век Фокс СНГ»
Рейтинг MPAA:



Качество: BDRip 1080p 3D
Формат: MKV
Видео кодек: AVC
Аудио кодеk: DTS
Видео: 1920x1080 (16:9), 23.976 fps, AVC, 13.2 Mbps
Аудио: Аудио #1Russian: DTS, 755 Kbps, 48.0 KHz, 6 ch
Аудио #2Ukrainian: AC3, 448 Kbps, 48.0 KHz, 6 ch
Аудио #3Russian D.Esarev: DTS, 1 510 Kbps, 48.0 KHz, 6 ch
Аудио #4English: DTS, 1 510 Kbps, 48.0 KHz, 6 ch
Аудио #5English: AC3, 224 Kbps, 48.0 KHz, 2 ch


Релиз группы:
General
Complete name : Exodus.Gods.and.Kings.2014.1080p.3D.BluRay.mkv
Format : Matroska
File size : 18.9 GiB
Duration : 2h 30mn
Overall bit rate : 18.0 Mbps
Movie name : Exodus: Gods and Kings (2014) [3D] - Release for HDCLUB
Encoded date : UTC 2015-04-01 21:40:30
Writing application : mkvmerge v3.4.0 ('Rapunzel') built on May 15 2010 09:38:20
Writing library : libebml v0.8.0 + libmatroska v0.9.0
Cover : Yes

Video
ID : 1
Format : AVC
Format/Info : Advanced Video Codec
Format profile : High@L4.1
Format settings, CABAC : Yes
Format settings, ReFrames : 4 frames
Muxing mode : Container profile=Unknown@4.1
Codec ID : V_MPEG4/ISO/AVC
Duration : 2h 30mn
Bit rate : 13.2 Mbps
Width : 1 920 pixels
Height : 1 080 pixels
Display aspect ratio : 16:9
Frame rate : 23.976 fps
Color space : YUV
Chroma subsampling : 4:2:0
Bit depth : 8 bits
Scan type : Progressive
Bits/(Pixel*Frame) : 0.266
Stream size : 13.9 GiB (73%)
Title : Exodus: Gods and Kings (2014) [3D] - Release for HDCLUB
Writing library : x264 core 133 r2334 a3ac64b
Encoding settings : cabac=1 / ref=4 / deblock=1:-3:-3 / analyse=0x3:0x133 / me=umh / subme=10 / psy=1 / psy_rd=1.05:0.00 / mixed_ref=1 / me_range=16 / chroma_me=1 / trellis=2 / 8x8dct=1 / cqm=0 / deadzone=21,11 / fast_pskip=0 / chroma_qp_offset=-2 / threads=24 / lookahead_threads=4 / sliced_threads=0 / nr=0 / decimate=0 / interlaced=0 / bluray_compat=0 / constrained_intra=0 / bframes=7 / b_pyramid=2 / b_adapt=2 / b_bias=0 / direct=3 / weightb=1 / open_gop=0 / weightp=2 / keyint=250 / keyint_min=23 / scenecut=40 / intra_refresh=0 / rc=crf / mbtree=0 / crf=17.0 / qcomp=0.65 / qpmin=0 / qpmax=69 / qpstep=4 / ip_ratio=1.40 / pb_ratio=1.20 / aq=1:0.85
Language : English

Audio #1
ID : 2
Format : DTS
Format/Info : Digital Theater Systems
Codec ID : A_DTS
Duration : 2h 30mn
Bit rate mode : Constant
Bit rate : 755 Kbps
Channel(s) : 6 channels
Channel positions : Front: L C R, Side: L R, LFE
Sampling rate : 48.0 KHz
Bit depth : 24 bits
Stream size : 811 MiB (4%)
Title : DTS 5.1 @ 768 kbps - DUB, Blu-ray EUR
Language : Russian

Audio #2
ID : 3
Format : AC-3
Format/Info : Audio Coding 3
Mode extension : CM (complete main)
Codec ID : A_AC3
Duration : 2h 30mn
Bit rate mode : Constant
Bit rate : 448 Kbps
Channel(s) : 6 channels
Channel positions : Front: L C R, Side: L R, LFE
Sampling rate : 48.0 KHz
Bit depth : 16 bits
Stream size : 482 MiB (2%)
Title : AC3 5.1 @ 448 kbps - DUB, Blu-ray EUR
Language : Ukrainian

Audio #3
ID : 4
Format : DTS
Format/Info : Digital Theater Systems
Codec ID : A_DTS
Duration : 2h 30mn
Bit rate mode : Constant
Bit rate : 1 510 Kbps
Channel(s) : 6 channels
Channel positions : Front: L C R, Side: L R, LFE
Sampling rate : 48.0 KHz
Bit depth : 24 bits
Stream size : 1.59 GiB (8%)
Title : DTS 5.1 @ 1536 kbps - AVO, D.Esarev
Language : Russian

Audio #4
ID : 5
Format : DTS
Format/Info : Digital Theater Systems
Codec ID : A_DTS
Duration : 2h 30mn
Bit rate mode : Constant
Bit rate : 1 510 Kbps
Channel(s) : 6 channels
Channel positions : Front: L C R, Side: L R, LFE
Sampling rate : 48.0 KHz
Bit depth : 24 bits
Video delay : 11ms
Stream size : 1.59 GiB (8%)
Title : DTS 5.1 @ 1536 kbps
Language : English

Audio #5
ID : 6
Format : AC-3
Format/Info : Audio Coding 3
Mode extension : CM (complete main)
Codec ID : A_AC3
Duration : 2h 30mn
Bit rate mode : Constant
Bit rate : 224 Kbps
Channel(s) : 2 channels
Channel positions : Front: L R
Sampling rate : 48.0 KHz
Bit depth : 16 bits
Stream size : 241 MiB (1%)
Title : AC3 2.0 @ 224 kbps - Commentary by Director/Producer Ridley Scott and Co-Screenwriter Jeffrey Caine
Language : English

Text #1
ID : 7
Format : UTF-8
Codec ID : S_TEXT/UTF8
Codec ID/Info : UTF-8 Plain Text
Title : Forced, iTunes
Language : Russian

Text #2
ID : 8
Format : UTF-8
Codec ID : S_TEXT/UTF8
Codec ID/Info : UTF-8 Plain Text
Title : iTunes
Language : Russian

Text #3
ID : 9
Format : UTF-8
Codec ID : S_TEXT/UTF8
Codec ID/Info : UTF-8 Plain Text
Title : iTunes
Language : Ukrainian

Text #4
ID : 10
Format : UTF-8
Codec ID : S_TEXT/UTF8
Codec ID/Info : UTF-8 Plain Text
Title : Commentary, Blu-ray EUR
Language : Russian

Text #5
ID : 11
Format : UTF-8
Codec ID : S_TEXT/UTF8
Codec ID/Info : UTF-8 Plain Text
Language : English

Text #6
ID : 12
Format : UTF-8
Codec ID : S_TEXT/UTF8
Codec ID/Info : UTF-8 Plain Text
Title : SDH
Language : English

Text #7
ID : 13
Format : UTF-8
Codec ID : S_TEXT/UTF8
Codec ID/Info : UTF-8 Plain Text
Title : Commentary
Language : English

Menu
00:00:00.000 : en:Chapter 1
00:03:55.402 : en:Chapter 2
00:06:51.995 : en:Chapter 3
00:11:47.707 : en:Chapter 4
00:14:29.452 : en:Chapter 5
00:18:37.658 : en:Chapter 6
00:22:15.834 : en:Chapter 7
00:26:51.151 : en:Chapter 8
00:30:31.288 : en:Chapter 9
00:36:41.366 : en:Chapter 10
00:40:48.321 : en:Chapter 11
00:44:49.937 : en:Chapter 12
00:48:47.800 : en:Chapter 13
00:51:16.448 : en:Chapter 14
00:54:22.217 : en:Chapter 15
00:57:32.658 : en:Chapter 16
01:00:31.169 : en:Chapter 17
01:04:41.544 : en:Chapter 18
01:06:49.047 : en:Chapter 19
01:11:01.883 : en:Chapter 20
01:16:53.692 : en:Chapter 21
01:21:18.040 : en:Chapter 22
01:24:30.357 : en:Chapter 23
01:28:08.533 : en:Chapter 24
01:30:54.157 : en:Chapter 25
01:34:14.566 : en:Chapter 26
01:37:20.543 : en:Chapter 27
01:39:20.204 : en:Chapter 28
01:42:40.321 : en:Chapter 29
01:46:50.070 : en:Chapter 30
01:49:02.661 : en:Chapter 31
01:52:18.315 : en:Chapter 32
01:57:29.876 : en:Chapter 33
02:00:23.842 : en:Chapter 34
02:05:41.325 : en:Chapter 35
02:07:31.269 : en:Chapter 36
02:13:38.469 : en:Chapter 37
02:16:21.882 : en:Chapter 38
02:19:39.997 : en:Chapter 39
02:23:19.800 : en:Chapter 40

info [Профиль]  [ЛС] 

post 02-Апр-2015 15:37 (спустя 1 минута) [-]0[+]

Топик был перенесен из форума Оформление раздач (Кинематограф) в форум Новинки (3D)

koss555
 

xaotik

Пол: Пол:Муж

Стаж: 2 года 6 месяцев

Сообщений: 129

Марокко
Рейтинг

post 24-Апр-2015 20:34 (спустя 22 дня) [-]0[+]

[Цитировать] 

Еще бы строчку «в главных ролях», а то фильм у меня не на слуху, и пока не перешел на кинопоиск, не увидел, что Том Круз на обложке это Кристиан Бэйл.
info [Профиль]  [ЛС] 

post 13-Май-2015 13:52 (спустя 18 дней) [-]0[+]

Топик был перенесен из форума Новинки (3D) в форум 3D

BZzz
 
Показать сообщения:    
Ответить на тему

Текущее время: 05-Дек 16:39

Часовой пояс: GMT + 4



Вы не можете начинать темы
Вы не можете отвечать на сообщения
Вы не можете редактировать свои сообщения
Вы не можете удалять свои сообщения
Вы не можете голосовать в опросах
Вы не можете прикреплять файлы к сообщениям
Вы не можете скачивать файлы