Ошибка

(Soundtrack) Howard Drossin, Jon Holland, Kurt Harland, John Baker - Sega Tunes (Virtual Sonic, Vectorman, Comix Zone, ToeJam & Earl, X-Men 2) - 1996, FLAC (tracks+.cue), lossless

Ответить на тему
 
Автор Сообщение

njdnchk

Пол: Пол:Муж

Стаж: 2 года 5 месяцев

Сообщений: 3

Рейтинг

post 30-Мар-2015 22:23 1[+]

[Цитировать] 

Howard Drossin, Jon Holland, Kurt Harland, John Baker - Sega Tunes (Virtual Sonic, Vectorman, Comix Zone, ToeJam & Earl, X-Men 2)

Жанр: Electronic, Rock
Происхождение исполнителя: USA
Страна-производитель носителя: USA
Год издания данного носителя: 1996
Лейбл: Delta Music Inc.
Каталоговый номер: 12 813
Тип релиза: tracks+.cue
Аудио кодек: FLAC
Битрейт аудио: lossless
Продолжительность: 29:36
Полиграфия: присутствует
Источник: Valet2
Треклист:
1 - Chaos Jam (2:29)
2 - Knucklemania (1:12)
3 - Battle of the Badnicks (4:17)
4 - Boss Opera (1:51)
5 - Return to the Toxic Caves (3:07)
6 - Sonic and Knuckles Theme (2:55)
7 - Robotnik's Revenge (2:21)
8 - Metal Sonic (2:56)
9 - Sandopolis (1:28)
10 - Spinball Theme (2:35)
11 - City in the Clouds (2:25)
12 - Sonic Triumphant (2:00)
 
Exact Audio Copy V0.99 prebeta 4 from 23. January 2008

EAC extraction logfile from 25. November 2009, 21:21

Howard Drossin / Sega Tunes: Virtual Sonic

Used drive : PLEXTOR DVDR PX-820A Adapter: 0 ID: 1

Read mode : Secure
Utilize accurate stream : Yes
Defeat audio cache : Yes
Make use of C2 pointers : No

Read offset correction : 48
Overread into Lead-In and Lead-Out : No
Fill up missing offset samples with silence : Yes
Delete leading and trailing silent blocks : No
Null samples used in CRC calculations : Yes
Used interface : Native Win32 interface for Win NT & 2000
Gap handling : Appended to previous track

Used output format : Internal WAV Routines
Sample format : 44.100 Hz; 16 Bit; Stereo

TOC of the extracted CD

Track | Start | Length | Start sector | End sector
---------------------------------------------------------
1 | 0:00.00 | 2:29.52 | 0 | 11226
2 | 2:29.52 | 1:12.58 | 11227 | 16684
3 | 3:42.35 | 4:17.00 | 16685 | 35959
4 | 7:59.35 | 1:51.27 | 35960 | 44311
5 | 9:50.62 | 3:06.53 | 44312 | 58314
6 | 12:57.40 | 2:54.65 | 58315 | 71429
7 | 15:52.30 | 2:21.24 | 71430 | 82028
8 | 18:13.54 | 2:55.68 | 82029 | 95221
9 | 21:09.47 | 1:28.25 | 95222 | 101846
10 | 22:37.72 | 2:35.25 | 101847 | 113496
11 | 25:13.22 | 2:24.53 | 113497 | 124349
12 | 27:38.00 | 2:00.30 | 124350 | 133379

Track 1

Filename c:\_extract\01 - Chaos Jam.wav

Pre-gap length 0:00:02.00

Peak level 100.0 %
Track quality 100.0 %
Test CRC D3630495
Copy CRC D3630495
Track not present in AccurateRip database
Copy OK

Track 2

Filename c:\_extract\02 - Knucklemania.wav

Pre-gap length 0:00:02.60

Peak level 100.0 %
Track quality 100.0 %
Test CRC C1D0BE7E
Copy CRC C1D0BE7E
Track not present in AccurateRip database
Copy OK

Track 3

Filename c:\_extract\03 - Battle of the Badnicks.wav

Pre-gap length 0:00:01.40

Peak level 100.0 %
Track quality 99.9 %
Test CRC 129D7070
Copy CRC 129D7070
Track not present in AccurateRip database
Copy OK

Track 4

Filename c:\_extract\04 - Boss Opera.wav

Pre-gap length 0:00:01.60

Peak level 100.0 %
Track quality 100.0 %
Test CRC 1E81BF4E
Copy CRC 1E81BF4E
Track not present in AccurateRip database
Copy OK

Track 5

Filename c:\_extract\05 - Return to the Toxic Caves.wav

Pre-gap length 0:00:01.65

Peak level 94.4 %
Track quality 100.0 %
Test CRC D3BF85EB
Copy CRC D3BF85EB
Track not present in AccurateRip database
Copy OK

Track 6

Filename c:\_extract\06 - Sonic and Knuckles Theme.wav

Pre-gap length 0:00:02.60

Peak level 100.0 %
Track quality 100.0 %
Test CRC 3190D10A
Copy CRC 3190D10A
Track not present in AccurateRip database
Copy OK

Track 7

Filename c:\_extract\07 - Robotnik's Revenge.wav

Pre-gap length 0:00:03.25

Peak level 99.9 %
Track quality 100.0 %
Test CRC 27E7C23D
Copy CRC 27E7C23D
Track not present in AccurateRip database
Copy OK

Track 8

Filename c:\_extract\08 - Metal Sonic.wav

Pre-gap length 0:00:02.19

Peak level 100.0 %
Track quality 100.0 %
Test CRC EC9637A9
Copy CRC EC9637A9
Track not present in AccurateRip database
Copy OK

Track 9

Filename c:\_extract\09 - Sandopolis.wav

Pre-gap length 0:00:03.07

Peak level 92.5 %
Track quality 99.8 %
Test CRC 6DED7F3F
Copy CRC 6DED7F3F
Track not present in AccurateRip database
Copy OK

Track 10

Filename c:\_extract\10 - Spinball Theme.wav

Pre-gap length 0:00:01.65

Peak level 98.6 %
Track quality 100.0 %
Test CRC 6E34585E
Copy CRC 6E34585E
Track not present in AccurateRip database
Copy OK

Track 11

Filename c:\_extract\11 - City in the Clouds.wav

Pre-gap length 0:00:02.57

Peak level 98.0 %
Track quality 100.0 %
Test CRC F5AF1294
Copy CRC F5AF1294
Track not present in AccurateRip database
Copy OK

Track 12

Filename c:\_extract\12 - Sonic Triumphant.wav

Peak level 100.0 %
Track quality 100.0 %
Test CRC 01AB2A04
Copy CRC 01AB2A04
Track not present in AccurateRip database
Copy OK

None of the tracks are present in the AccurateRip database

No errors occurred

End of status report
 
REM GENRE Game
REM DATE 1996
REM DISCID 9C06F20C
REM COMMENT "ExactAudioCopy v0.99pb4"
PERFORMER "Howard Drossin"
TITLE "Sega Tunes: Virtual Sonic"
FILE "01 - Chaos Jam.wav" WAVE
TRACK 01 AUDIO
TITLE "Chaos Jam"
PERFORMER "Howard Drossin"
INDEX 01 00:00:00
TRACK 02 AUDIO
TITLE "Knucklemania"
PERFORMER "Howard Drossin"
INDEX 00 02:26:67
FILE "02 - Knucklemania.wav" WAVE
INDEX 01 00:00:00
TRACK 03 AUDIO
TITLE "Battle of the Badnicks"
PERFORMER "Howard Drossin"
INDEX 00 01:11:18
FILE "03 - Battle of the Badnicks.wav" WAVE
INDEX 01 00:00:00
TRACK 04 AUDIO
TITLE "Boss Opera"
PERFORMER "Howard Drossin"
INDEX 00 04:15:15
FILE "04 - Boss Opera.wav" WAVE
INDEX 01 00:00:00
TRACK 05 AUDIO
TITLE "Return to the Toxic Caves"
PERFORMER "Howard Drossin"
INDEX 00 01:49:37
FILE "05 - Return to the Toxic Caves.wav" WAVE
INDEX 01 00:00:00
TRACK 06 AUDIO
TITLE "Sonic and Knuckles Theme"
PERFORMER "Howard Drossin"
INDEX 00 03:03:68
FILE "06 - Sonic and Knuckles Theme.wav" WAVE
INDEX 01 00:00:00
TRACK 07 AUDIO
TITLE "Robotnik's Revenge"
PERFORMER "Howard Drossin"
INDEX 00 02:51:40
FILE "07 - Robotnik's Revenge.wav" WAVE
INDEX 01 00:00:00
TRACK 08 AUDIO
TITLE "Metal Sonic"
PERFORMER "Howard Drossin"
INDEX 00 02:19:05
FILE "08 - Metal Sonic.wav" WAVE
INDEX 01 00:00:00
TRACK 09 AUDIO
TITLE "Sandopolis"
PERFORMER "Howard Drossin"
INDEX 00 02:52:61
FILE "09 - Sandopolis.wav" WAVE
INDEX 01 00:00:00
TRACK 10 AUDIO
TITLE "Spinball Theme"
PERFORMER "Howard Drossin"
INDEX 00 01:26:35
FILE "10 - Spinball Theme.wav" WAVE
INDEX 01 00:00:00
TRACK 11 AUDIO
TITLE "City in the Clouds"
PERFORMER "Howard Drossin"
INDEX 00 02:32:43
FILE "11 - City in the Clouds.wav" WAVE
INDEX 01 00:00:00
FILE "12 - Sonic Triumphant.wav" WAVE
TRACK 12 AUDIO
TITLE "Sonic Triumphant"
PERFORMER "Howard Drossin"
INDEX 01 00:00:00
Жанр: Electronic
Происхождение исполнителя: USA
Страна-производитель носителя: USA
Год издания данного носителя: 1996
Лейбл: Delta Music Inc.
Каталоговый номер: 12 814
Тип релиза: tracks+.cue
Аудио кодек: FLAC
Битрейт аудио: lossless
Продолжительность: 31:46
Полиграфия: присутствует
Источник: Valet2
Треклист:
1 - Vectorman Theme (4:07)
2 - Options (3:43)
3 - F.Y.I. (3:58)
4 - Fortified (3:00)
5 - Minus 32 (3:13)
6 - Nocturnicular (2:40)
7 - Screen Test (3:04)
8 - Introinfo (2:47)
9 - Oshin Thing (2:30)
10 - Downward Motion (2:44)
 
Exact Audio Copy V0.99 prebeta 4 from 23. January 2008

EAC extraction logfile from 25. November 2009, 21:56

Jon Holland / Sega Tunes: Vectorman

Used drive : PLEXTOR DVDR PX-820A Adapter: 0 ID: 1

Read mode : Secure
Utilize accurate stream : Yes
Defeat audio cache : Yes
Make use of C2 pointers : No

Read offset correction : 48
Overread into Lead-In and Lead-Out : No
Fill up missing offset samples with silence : Yes
Delete leading and trailing silent blocks : No
Null samples used in CRC calculations : Yes
Used interface : Native Win32 interface for Win NT & 2000
Gap handling : Appended to previous track

Used output format : Internal WAV Routines
Sample format : 44.100 Hz; 16 Bit; Stereo

TOC of the extracted CD

Track | Start | Length | Start sector | End sector
---------------------------------------------------------
1 | 0:00.00 | 4:07.32 | 0 | 18556
2 | 4:07.32 | 3:43.28 | 18557 | 35309
3 | 7:50.60 | 3:58.17 | 35310 | 53176
4 | 11:49.02 | 3:00.03 | 53177 | 66679
5 | 14:49.05 | 3:13.00 | 66680 | 81154
6 | 18:02.05 | 2:39.70 | 81155 | 93149
7 | 20:42.00 | 3:04.12 | 93150 | 106961
8 | 23:46.12 | 2:47.05 | 106962 | 119491
9 | 26:33.17 | 2:30.10 | 119492 | 130751
10 | 29:03.27 | 2:43.55 | 130752 | 143031

Track 1

Filename c:\_extract\01 - Vectorman Theme.wav

Pre-gap length 0:00:02.00

Peak level 100.0 %
Track quality 100.0 %
Test CRC 7B9DE36A
Copy CRC 7B9DE36A
Accurately ripped (confidence 1) [FF8D9CA5]
Copy OK

Track 2

Filename c:\_extract\02 - Options.wav

Pre-gap length 0:00:01.65

Peak level 100.0 %
Track quality 100.0 %
Test CRC 0438DA31
Copy CRC 0438DA31
Accurately ripped (confidence 1) [06BD0746]
Copy OK

Track 3

Filename c:\_extract\03 - F.Y.I..wav

Pre-gap length 0:00:01.30

Peak level 100.0 %
Track quality 100.0 %
Test CRC 0568B38A
Copy CRC 0568B38A
Accurately ripped (confidence 1) [1119B50B]
Copy OK

Track 4

Filename c:\_extract\04 - Fortified.wav

Pre-gap length 0:00:01.45

Peak level 100.0 %
Track quality 100.0 %
Test CRC B304FD7E
Copy CRC B304FD7E
Accurately ripped (confidence 1) [5767A3A5]
Copy OK

Track 5

Filename c:\_extract\05 - Minus 32.wav

Pre-gap length 0:00:02.28

Peak level 100.0 %
Track quality 100.0 %
Test CRC 2F7F0C94
Copy CRC 2F7F0C94
Accurately ripped (confidence 1) [A8501922]
Copy OK

Track 6

Filename c:\_extract\06 - Nocturnicular.wav

Pre-gap length 0:00:02.38

Peak level 100.0 %
Track quality 100.0 %
Test CRC 1B34538E
Copy CRC 1B34538E
Accurately ripped (confidence 1) [4ECB1E6E]
Copy OK

Track 7

Filename c:\_extract\07 - Screen Test.wav

Pre-gap length 0:00:02.23

Peak level 99.9 %
Track quality 100.0 %
Test CRC 29540B8B
Copy CRC 29540B8B
Accurately ripped (confidence 1) [7CB58042]
Copy OK

Track 8

Filename c:\_extract\08 - Introinfo.wav

Pre-gap length 0:00:02.20

Peak level 99.9 %
Track quality 100.0 %
Test CRC 9CFFD670
Copy CRC 9CFFD670
Accurately ripped (confidence 1) [C6A69A42]
Copy OK

Track 9

Filename c:\_extract\09 - Oshin Thing.wav

Pre-gap length 0:00:01.45

Peak level 100.0 %
Track quality 100.0 %
Test CRC C5F3E0E9
Copy CRC C5F3E0E9
Accurately ripped (confidence 1) [0A8400D0]
Copy OK

Track 10

Filename c:\_extract\10 - Downward Motion.wav

Pre-gap length 0:00:02.05

Peak level 100.0 %
Track quality 99.9 %
Test CRC 20AD65E4
Copy CRC 20AD65E4
Accurately ripped (confidence 1) [79543BA6]
Copy OK

All tracks accurately ripped

No errors occurred

End of status report
 
REM GENRE Game
REM DATE 1996
REM DISCID 8507730A
REM COMMENT "ExactAudioCopy v0.99pb4"
PERFORMER "Jon Holland"
TITLE "Sega Tunes: Vectorman"
FILE "01 - Vectorman Theme.wav" WAVE
TRACK 01 AUDIO
TITLE "Vectorman Theme"
PERFORMER "Jon Holland"
INDEX 01 00:00:00
TRACK 02 AUDIO
TITLE "Options"
PERFORMER "Jon Holland"
INDEX 00 04:05:42
FILE "02 - Options.wav" WAVE
INDEX 01 00:00:00
TRACK 03 AUDIO
TITLE "F.Y.I."
PERFORMER "Jon Holland"
INDEX 00 03:41:73
FILE "03 - F.Y.I..wav" WAVE
INDEX 01 00:00:00
TRACK 04 AUDIO
TITLE "Fortified"
PERFORMER "Jon Holland"
INDEX 00 03:56:47
FILE "04 - Fortified.wav" WAVE
INDEX 01 00:00:00
TRACK 05 AUDIO
TITLE "Minus 32"
PERFORMER "Jon Holland"
INDEX 00 02:57:50
FILE "05 - Minus 32.wav" WAVE
INDEX 01 00:00:00
TRACK 06 AUDIO
TITLE "Nocturnicular"
PERFORMER "Jon Holland"
INDEX 00 03:10:37
FILE "06 - Nocturnicular.wav" WAVE
INDEX 01 00:00:00
TRACK 07 AUDIO
TITLE "Screen Test"
PERFORMER "Jon Holland"
INDEX 00 02:37:47
FILE "07 - Screen Test.wav" WAVE
INDEX 01 00:00:00
TRACK 08 AUDIO
TITLE "Introinfo"
PERFORMER "Jon Holland"
INDEX 00 03:01:67
FILE "08 - Introinfo.wav" WAVE
INDEX 01 00:00:00
TRACK 09 AUDIO
TITLE "Oshin Thing"
PERFORMER "Jon Holland"
INDEX 00 02:45:35
FILE "09 - Oshin Thing.wav" WAVE
INDEX 01 00:00:00
TRACK 10 AUDIO
TITLE "Downward Motion"
PERFORMER "Jon Holland"
INDEX 00 02:28:05
FILE "10 - Downward Motion.wav" WAVE
INDEX 01 00:00:00
Жанр: Rock
Происхождение исполнителя: USA
Страна-производитель носителя: USA
Год издания данного носителя: 1996
Лейбл: Delta Music Inc.
Каталоговый номер: 12 815
Тип релиза: tracks+.cue
Аудио кодек: FLAC
Битрейт аудио: lossless
Продолжительность: 18:39
Полиграфия: присутствует
Источник: Valet2
Треклист:
1 - Into the zone (3:04)
2 - Feed my Disease (2:40)
3 - 10.000 Knives (3:22)
4 - Seen It For Days (3:52)
5 - Woe is The World (3:00)
6 - Last To Follow (2:41)
 
Exact Audio Copy V0.99 prebeta 4 from 23. January 2008

EAC extraction logfile from 25. November 2009, 22:17

Howard Drossin / Sega Tunes: Comix Zone

Used drive : PLEXTOR DVDR PX-820A Adapter: 0 ID: 1

Read mode : Secure
Utilize accurate stream : Yes
Defeat audio cache : Yes
Make use of C2 pointers : No

Read offset correction : 48
Overread into Lead-In and Lead-Out : No
Fill up missing offset samples with silence : Yes
Delete leading and trailing silent blocks : No
Null samples used in CRC calculations : Yes
Used interface : Native Win32 interface for Win NT & 2000
Gap handling : Appended to previous track

Used output format : Internal WAV Routines
Sample format : 44.100 Hz; 16 Bit; Stereo

TOC of the extracted CD

Track | Start | Length | Start sector | End sector
---------------------------------------------------------
1 | 0:00.00 | 3:04.05 | 0 | 13804
2 | 3:04.05 | 2:39.73 | 13805 | 25802
3 | 5:44.03 | 3:22.17 | 25803 | 40969
4 | 9:06.20 | 3:52.23 | 40970 | 58392
5 | 12:58.43 | 3:00.10 | 58393 | 71902
6 | 15:58.53 | 2:40.57 | 71903 | 83959

Track 1

Filename c:\_extract\01 - Into the zone.wav

Pre-gap length 0:00:02.00

Peak level 100.0 %
Track quality 100.0 %
Test CRC 9935CAB8
Copy CRC 9935CAB8
Track not present in AccurateRip database
Copy OK

Track 2

Filename c:\_extract\02 - Feed my Disease.wav

Peak level 100.0 %
Track quality 100.0 %
Test CRC 47AF1818
Copy CRC 47AF1818
Track not present in AccurateRip database
Copy OK

Track 3

Filename c:\_extract\03 - 10,000 Knives.wav

Pre-gap length 0:00:00.65

Peak level 100.0 %
Track quality 99.9 %
Test CRC 37B9A603
Copy CRC 37B9A603
Track not present in AccurateRip database
Copy OK

Track 4

Filename c:\_extract\04 - Seen It For Days.wav

Peak level 100.0 %
Track quality 100.0 %
Test CRC C5957394
Copy CRC C5957394
Track not present in AccurateRip database
Copy OK

Track 5

Filename c:\_extract\05 - Woe is The World.wav

Peak level 100.0 %
Track quality 100.0 %
Test CRC 5B1446FE
Copy CRC 5B1446FE
Track not present in AccurateRip database
Copy OK

Track 6

Filename c:\_extract\06 - Last To Follow.wav

Peak level 100.0 %
Track quality 99.9 %
Test CRC 457CE937
Copy CRC 457CE937
Track not present in AccurateRip database
Copy OK

None of the tracks are present in the AccurateRip database

No errors occurred

End of status report
 
REM GENRE Soundtrack
REM DATE 1996
REM DISCID 4D045F06
REM COMMENT "ExactAudioCopy v0.99pb4"
PERFORMER "Howard Drossin"
TITLE "Sega Tunes: Comix Zone"
FILE "01 - Into the zone.wav" WAVE
TRACK 01 AUDIO
TITLE "Into the zone"
PERFORMER "Howard Drossin"
INDEX 01 00:00:00
FILE "02 - Feed my Disease.wav" WAVE
TRACK 02 AUDIO
TITLE "Feed my Disease"
PERFORMER "Howard Drossin"
INDEX 01 00:00:00
TRACK 03 AUDIO
TITLE "10,000 Knives"
PERFORMER "Howard Drossin"
INDEX 00 02:39:08
FILE "03 - 10,000 Knives.wav" WAVE
INDEX 01 00:00:00
FILE "04 - Seen It For Days.wav" WAVE
TRACK 04 AUDIO
TITLE "Seen It For Days"
PERFORMER "Howard Drossin"
INDEX 01 00:00:00
FILE "05 - Woe is The World.wav" WAVE
TRACK 05 AUDIO
TITLE "Woe is The World"
PERFORMER "Howard Drossin"
INDEX 01 00:00:00
FILE "06 - Last To Follow.wav" WAVE
TRACK 06 AUDIO
TITLE "Last To Follow"
PERFORMER "Howard Drossin"
INDEX 01 00:00:00
Жанр: Funk
Происхождение исполнителя: USA
Страна-производитель носителя: USA
Год издания данного носителя: 1996
Лейбл: Delta Music Inc.
Каталоговый номер: 12 816
Тип релиза: tracks+.cue
Аудио кодек: FLAC
Битрейт аудио: lossless
Продолжительность: 28:17
Полиграфия: присутствует
Источник: Valet2
Треклист:
1 - Theme Song (3:34)
2 - Funky Alien (4:06)
3 - Funk Down Under (3:28)
4 - Funk Funk Funk E (3:17)
5 - Rocket Rap (3:32)
6 - Ode to Sharla (3:38)
7 - Mellow Groove (3:09)
8 - Lewanda's Love (3:33)
 
Exact Audio Copy V0.99 prebeta 4 from 23. January 2008

EAC extraction logfile from 25. November 2009, 22:42

John Baker / Sega Tunes: ToeJam & Earl

Used drive : PLEXTOR DVDR PX-820A Adapter: 0 ID: 1

Read mode : Secure
Utilize accurate stream : Yes
Defeat audio cache : Yes
Make use of C2 pointers : No

Read offset correction : 48
Overread into Lead-In and Lead-Out : No
Fill up missing offset samples with silence : Yes
Delete leading and trailing silent blocks : No
Null samples used in CRC calculations : Yes
Used interface : Native Win32 interface for Win NT & 2000
Gap handling : Appended to previous track

Used output format : Internal WAV Routines
Sample format : 44.100 Hz; 16 Bit; Stereo

TOC of the extracted CD

Track | Start | Length | Start sector | End sector
---------------------------------------------------------
1 | 0:00.00 | 3:34.42 | 0 | 16091
2 | 3:34.42 | 4:06.13 | 16092 | 34554
3 | 7:40.55 | 3:27.55 | 34555 | 50134
4 | 11:08.35 | 3:16.47 | 50135 | 64881
5 | 14:25.07 | 3:31.43 | 64882 | 80749
6 | 17:56.50 | 3:37.42 | 80750 | 97066
7 | 21:34.17 | 3:09.20 | 97067 | 111261
8 | 24:43.37 | 3:33.13 | 111262 | 127249

Track 1

Filename c:\_extract\01 - Theme Song.wav

Pre-gap length 0:00:02.00

Peak level 100.0 %
Track quality 100.0 %
Test CRC 8619C106
Copy CRC 8619C106
Accurately ripped (confidence 1) [A359F77D]
Copy OK

Track 2

Filename c:\_extract\02 - Funky Alien.wav

Pre-gap length 0:00:01.25

Peak level 100.0 %
Track quality 100.0 %
Test CRC 08CC5287
Copy CRC 08CC5287
Accurately ripped (confidence 1) [CF073710]
Copy OK

Track 3

Filename c:\_extract\03 - Funk Down Under.wav

Pre-gap length 0:00:01.33

Peak level 100.0 %
Track quality 100.0 %
Test CRC 0E2F7F87
Copy CRC 0E2F7F87
Accurately ripped (confidence 1) [FA2C1D25]
Copy OK

Track 4

Filename c:\_extract\04 - Funk Funk Funk E.wav

Pre-gap length 0:00:01.13

Peak level 100.0 %
Track quality 100.0 %
Test CRC FBE32423
Copy CRC FBE32423
Accurately ripped (confidence 1) [1C6E19E6]
Copy OK

Track 5

Filename c:\_extract\05 - Rocket Rap.wav

Pre-gap length 0:00:01.52

Peak level 100.0 %
Track quality 100.0 %
Test CRC 42E4E0F4
Copy CRC 42E4E0F4
Accurately ripped (confidence 1) [CAFB2874]
Copy OK

Track 6

Filename c:\_extract\06 - Ode to Sharla.wav

Pre-gap length 0:00:01.45

Peak level 100.0 %
Track quality 100.0 %
Test CRC 2009E5EB
Copy CRC 2009E5EB
Accurately ripped (confidence 1) [0519BFB2]
Copy OK

Track 7

Filename c:\_extract\07 - Mellow Groove.wav

Pre-gap length 0:00:01.05

Peak level 100.0 %
Track quality 99.9 %
Test CRC 802E35FF
Copy CRC 802E35FF
Accurately ripped (confidence 1) [0800B218]
Copy OK

Track 8

Filename c:\_extract\08 - Lewanda's Love.wav

Pre-gap length 0:00:02.10

Peak level 100.0 %
Track quality 99.9 %
Test CRC 8C73A7EA
Copy CRC 8C73A7EA
Accurately ripped (confidence 1) [F26285E7]
Copy OK

All tracks accurately ripped

No errors occurred

End of status report
 
REM GENRE Game
REM DATE 1996
REM DISCID 6D06A008
REM COMMENT "ExactAudioCopy v0.99pb4"
PERFORMER "John Baker"
TITLE "Sega Tunes: ToeJam & Earl"
FILE "01 - Theme Song.wav" WAVE
TRACK 01 AUDIO
TITLE "Theme Song"
PERFORMER "John Baker"
INDEX 01 00:00:00
TRACK 02 AUDIO
TITLE "Funky Alien"
PERFORMER "John Baker"
INDEX 00 03:33:17
FILE "02 - Funky Alien.wav" WAVE
INDEX 01 00:00:00
TRACK 03 AUDIO
TITLE "Funk Down Under"
PERFORMER "John Baker"
INDEX 00 04:04:55
FILE "03 - Funk Down Under.wav" WAVE
INDEX 01 00:00:00
TRACK 04 AUDIO
TITLE "Funk Funk Funk E"
PERFORMER "John Baker"
INDEX 00 03:26:42
FILE "04 - Funk Funk Funk E.wav" WAVE
INDEX 01 00:00:00
TRACK 05 AUDIO
TITLE "Rocket Rap"
PERFORMER "John Baker"
INDEX 00 03:14:70
FILE "05 - Rocket Rap.wav" WAVE
INDEX 01 00:00:00
TRACK 06 AUDIO
TITLE "Ode to Sharla"
PERFORMER "John Baker"
INDEX 00 03:29:73
FILE "06 - Ode to Sharla.wav" WAVE
INDEX 01 00:00:00
TRACK 07 AUDIO
TITLE "Mellow Groove"
PERFORMER "John Baker"
INDEX 00 03:36:37
FILE "07 - Mellow Groove.wav" WAVE
INDEX 01 00:00:00
TRACK 08 AUDIO
TITLE "Lewanda's Love"
PERFORMER "John Baker"
INDEX 00 03:07:10
FILE "08 - Lewanda's Love.wav" WAVE
INDEX 01 00:00:00
Жанр: Electronic
Происхождение исполнителя: USA
Страна-производитель носителя: USA
Год издания данного носителя: 1996
Лейбл: Delta Music Inc.
Каталоговый номер: 12 817
Тип релиза: tracks+.cue
Аудио кодек: FLAC
Битрейт аудио: lossless
Продолжительность: 35:19
Полиграфия: присутствует
Источник: Valet2
Треклист:
1 - Marvel Comics, X-Men 2: The Clone Wars (7:11)
2 - Climbing the Temple (3:36)
3 - The Brood Queen & Her Claws (4:05)
4 - Factory Floor (4:14)
5 - As Fluid Rises In The Citadel (5:04)
6 - Avalon 3 (3:51)
7 - BrainChild (5:05)
8 - Sentinel Core Escape (2:13)
 
Exact Audio Copy V0.99 prebeta 4 from 23. January 2008

EAC extraction logfile from 25. November 2009, 23:11

Kurt Harland / Sega Tunes: X-Men 2

Used drive : PLEXTOR DVDR PX-820A Adapter: 0 ID: 1

Read mode : Secure
Utilize accurate stream : Yes
Defeat audio cache : Yes
Make use of C2 pointers : No

Read offset correction : 48
Overread into Lead-In and Lead-Out : No
Fill up missing offset samples with silence : Yes
Delete leading and trailing silent blocks : No
Null samples used in CRC calculations : Yes
Used interface : Native Win32 interface for Win NT & 2000
Gap handling : Appended to previous track

Used output format : Internal WAV Routines
Sample format : 44.100 Hz; 16 Bit; Stereo

TOC of the extracted CD

Track | Start | Length | Start sector | End sector
---------------------------------------------------------
1 | 0:00.00 | 7:11.25 | 0 | 32349
2 | 7:11.25 | 3:35.52 | 32350 | 48526
3 | 10:47.02 | 4:05.05 | 48527 | 66906
4 | 14:52.07 | 4:14.30 | 66907 | 85986
5 | 19:06.37 | 5:04.10 | 85987 | 108796
6 | 24:10.47 | 3:50.63 | 108797 | 126109
7 | 28:01.35 | 5:05.17 | 126110 | 149001
8 | 33:06.52 | 2:13.33 | 149002 | 159009

Track 1

Filename c:\_extract\01 - Marvel Comics, X-Men 2- The Clone Wars.wav

Pre-gap length 0:00:02.00

Peak level 100.0 %
Track quality 99.9 %
Test CRC EB4AB23D
Copy CRC EB4AB23D
Accurately ripped (confidence 1) [604F9C63]
Copy OK

Track 2

Filename c:\_extract\02 - Climbing the Temple.wav

Pre-gap length 0:00:02.08

Peak level 100.0 %
Track quality 100.0 %
Test CRC 135ED322
Copy CRC 135ED322
Accurately ripped (confidence 1) [A89A0A71]
Copy OK

Track 3

Filename c:\_extract\03 - The Brood Queen & Her Claws.wav

Pre-gap length 0:00:01.30

Peak level 100.0 %
Track quality 99.9 %
Test CRC 70875EE6
Copy CRC 70875EE6
Accurately ripped (confidence 1) [7C85F8D8]
Copy OK

Track 4

Filename c:\_extract\04 - Factory Floor.wav

Pre-gap length 0:00:01.42

Peak level 99.9 %
Track quality 100.0 %
Test CRC 31DD1CD4
Copy CRC 31DD1CD4
Accurately ripped (confidence 1) [893D60A9]
Copy OK

Track 5

Filename c:\_extract\05 - As Fluid Rises In The Citadel.wav

Pre-gap length 0:00:01.52

Peak level 100.0 %
Track quality 100.0 %
Test CRC A4F77D1D
Copy CRC A4F77D1D
Accurately ripped (confidence 1) [378E32B9]
Copy OK

Track 6

Filename c:\_extract\06 - Avalon 3.wav

Pre-gap length 0:00:01.12

Peak level 100.0 %
Track quality 100.0 %
Test CRC 6DC92EF8
Copy CRC 6DC92EF8
Accurately ripped (confidence 1) [95EC814C]
Copy OK

Track 7

Filename c:\_extract\07 - BrainChild.wav

Pre-gap length 0:00:01.05

Peak level 100.0 %
Track quality 100.0 %
Test CRC 16C583F5
Copy CRC 16C583F5
Accurately ripped (confidence 1) [59F668C2]
Copy OK

Track 8

Filename c:\_extract\08 - Sentinel Core Escape.wav

Pre-gap length 0:00:01.65

Peak level 100.0 %
Track quality 100.0 %
Test CRC 20FC5D13
Copy CRC 20FC5D13
Accurately ripped (confidence 1) [EDABD407]
Copy OK

All tracks accurately ripped

No errors occurred

End of status report
 
REM GENRE Game
REM DATE 1996
REM DISCID 7A084808
REM COMMENT "ExactAudioCopy v0.99pb4"
PERFORMER "Kurt Harland"
TITLE "Sega Tunes: X-Men 2"
FILE "01 - Marvel Comics, X-Men 2- The Clone Wars.wav" WAVE
TRACK 01 AUDIO
TITLE "Marvel Comics, X-Men 2: The Clone Wars"
PERFORMER "Kurt Harland"
INDEX 01 00:00:00
TRACK 02 AUDIO
TITLE "Climbing the Temple"
PERFORMER "Kurt Harland"
INDEX 00 07:09:17
FILE "02 - Climbing the Temple.wav" WAVE
INDEX 01 00:00:00
TRACK 03 AUDIO
TITLE "The Brood Queen & Her Claws"
PERFORMER "Kurt Harland"
INDEX 00 03:34:22
FILE "03 - The Brood Queen & Her Claws.wav" WAVE
INDEX 01 00:00:00
TRACK 04 AUDIO
TITLE "Factory Floor"
PERFORMER "Kurt Harland"
INDEX 00 04:03:38
FILE "04 - Factory Floor.wav" WAVE
INDEX 01 00:00:00
TRACK 05 AUDIO
TITLE "As Fluid Rises In The Citadel"
PERFORMER "Kurt Harland"
INDEX 00 04:12:53
FILE "05 - As Fluid Rises In The Citadel.wav" WAVE
INDEX 01 00:00:00
TRACK 06 AUDIO
TITLE "Avalon 3"
PERFORMER "Kurt Harland"
INDEX 00 05:02:73
FILE "06 - Avalon 3.wav" WAVE
INDEX 01 00:00:00
TRACK 07 AUDIO
TITLE "BrainChild"
PERFORMER "Kurt Harland"
INDEX 00 03:49:58
FILE "07 - BrainChild.wav" WAVE
INDEX 01 00:00:00
TRACK 08 AUDIO
TITLE "Sentinel Core Escape"
PERFORMER "Kurt Harland"
INDEX 00 05:03:27
FILE "08 - Sentinel Core Escape.wav" WAVE
INDEX 01 00:00:00
info [Профиль]  [ЛС] 
Показать сообщения:    
Ответить на тему

Текущее время: 04-Дек 06:01

Часовой пояс: GMT + 4



Вы не можете начинать темы
Вы не можете отвечать на сообщения
Вы не можете редактировать свои сообщения
Вы не можете удалять свои сообщения
Вы не можете голосовать в опросах
Вы не можете прикреплять файлы к сообщениям
Вы не можете скачивать файлы