·
...

/ The Book of Life ( . / Jorge R. Gutiérrez ) [2014, , , , , , , , BDRip, SD (576p)][iPad] DUB + Original + sub (rus, eng)

 

L

: :

: 6 7

: 10804


post 28--2015 08:59 1[+]

[] 

/ The Book of Life
-

7.598 / 10 7.30 / 10

: 2014
:
: , , , , ,
: 01:35:24

: (iTunes Russian)
:
C: , ,
: .
: . ,
: , ,
:
: ,
: ,
: , , , , , , , , ,

: $50 000 000
: $50 151 543
: + $47 285 563 = $97 437 106
: $1 171 573

: 3 2014
(): 26 2015, û

DVD: 16 2015, û
Blu-Ray: 16 2015, û

: (The Book of Life) , , . , . , , , .
: BDRemux
: BDRip
: SD (576p)
: M4V
: H.264, 1024x432, 2.40:1, 2 200 Kbps, 23.976 fps

1: / (iTunes Russian), AAC / 2.0 / 157 Kbps / 48.0 KHz
2: / , AAC / 2.0 / 157 Kbps / 48.0 KHz

1:
2:
3:
Sort Name: Book of Life
XID: Apple:vendor_id:2014-669880
contentID: 920639804
Copyright: 2014 Twentieth Century Fox Film Corporation and Reel FX Productions II, LLC. All rights reserved.
Screenwriters: . ,
Producers: , ,
Director: .
Cast: , , , , , , , , , , ,
Studio: 20th Century Fox
Rating: 9
Long Description: .
Description: .
Release Date: 2014-10-03T08:00:00Z
Genre: Kids & Family
Artist: Jorge R. Gutierrez
Name: The Book of Life
General
Complete name : /Users/imac/HandBrake/The.Book.of.Life.(SD).(pk).m4v
Format : MPEG-4
Codec ID : M4V
File size : 1.68 GiB
Duration : 1h 35mn
Overall bit rate mode : Variable
Overall bit rate : 2 521 Kbps
Movie name : The Book of Life
Performer : Jorge R. Gutierrez
Genre : Kids & Family
Recorded date : UTC 2014-10-03 08:00:00
Encoded date : UTC 2015-03-27 09:00:57
Tagged date : UTC 2015-03-27 09:02:05
Copyright : 2014 Twentieth Century Fox Film Corporation and Reel FX Productions II, LLC. All rights reserved.
Cover : Yes
sonm : Book of Life
desc : .
ldes : .
stik : 9
rtng : 0
cnID : 920639804
xid : Apple:vendor_id:2014-669880
iTunEXTC : mpaa|PG|200|
iTunMOVI : <?xml version=\"1.0\" encoding=\"UTF-8\"?> / <!DOCTYPE plist PUBLIC \"-//Apple//DTD PLIST 1.0//EN\" \"http://www.apple.com/DTDs/PropertyList-1.0.dtd\"> / <plist version=\"1.0\"> / <dict> / <key>cast</key> / <array> / <dict> / <key>name</key> / <string> </string> / </dict> / <dict> / <key>name</key> / <string> </string> / </dict> / <dict> / <key>name</key> / <string> </string> / </dict> / <dict> / <key>name</key> / <string> </string> / </dict> / <dict> / <key>name</key> / <string> </string> / </dict> / <dict> / <key>name</key> / <string> </string> / </dict> / <dict> / <key>name</key> / <string> </string> / </dict> / <dict> / <key>name</key> / <string> </string> / </dict> / <dict> / <key>name</key> / <string> </string> / </dict> / <dict> / <key>name</key> / <string> </string> / </dict> / <dict> / <key>name</key> / <string> </string> / </dict> / <dict> / <key>name</key> / <string> </string> / </dict> / </array> / <key>directors</key> / <array> / <dict> / <key>name</key> / <string> . </string> / </dict> / </array> / <key>producers</key> / <array> / <dict> / <key>name</key> / <string> </string> / </dict> / <dict> / <key>name</key> / <string> </string> / </dict> / <dict> / <key>name</key> / <string> </string> / </dict> / </array> / <key>screenwriters</key> / <array> / <dict> / <key>name</key> / <string> . </string> / </dict> / <dict> / <key>name</key> / <string> </string> / </dict> / </array> / <key>studio</key> / <string>20th Century Fox</string> / </dict> / </plist>

Video #1
ID : 1
Format : AVC
Format/Info : Advanced Video Codec
Format profile : High@L3.1
Format settings, CABAC : Yes
Format settings, ReFrames : 9 frames
Codec ID : avc1
Codec ID/Info : Advanced Video Coding
Duration : 1h 35mn
Bit rate mode : Variable
Bit rate : 2 200 Kbps
Width : 1 024 pixels
Height : 432 pixels
Display aspect ratio : 2.40:1
Frame rate mode : Variable
Frame rate : 23.976 fps
Minimum frame rate : 23.974 fps
Maximum frame rate : 23.981 fps
Color space : YUV
Chroma subsampling : 4:2:0
Bit depth : 8 bits
Scan type : Progressive
Bits/(Pixel*Frame) : 0.207
Stream size : 1.47 GiB (87%)
Writing library : x264 core 142 r2479 dd79a61
Encoding settings : cabac=1 / ref=9 / deblock=1:0:0 / analyse=0x3:0x113 / me=umh / subme=9 / psy=1 / psy_rd=1.00:0.00 / mixed_ref=1 / me_range=32 / chroma_me=1 / trellis=1 / 8x8dct=1 / cqm=0 / deadzone=21,11 / fast_pskip=1 / chroma_qp_offset=-2 / threads=36 / lookahead_threads=3 / sliced_threads=0 / nr=0 / decimate=1 / interlaced=0 / bluray_compat=0 / constrained_intra=0 / bframes=6 / b_pyramid=2 / b_adapt=2 / b_bias=0 / direct=1 / weightb=1 / open_gop=0 / weightp=2 / keyint=240 / keyint_min=24 / scenecut=40 / intra_refresh=0 / rc_lookahead=40 / rc=2pass / mbtree=1 / bitrate=2200 / ratetol=1.0 / qcomp=0.60 / qpmin=0 / qpmax=69 / qpstep=4 / cplxblur=20.0 / qblur=0.5 / ip_ratio=1.40 / aq=1:1.00
Language : English
Encoded date : UTC 2015-03-27 09:00:57
Tagged date : UTC 2015-03-27 09:01:00
Color primaries : BT.709-5, BT.1361, IEC 61966-2-4, SMPTE RP177
Transfer characteristics : BT.709-5, BT.1361
Matrix coefficients : BT.709-5, BT.1361, IEC 61966-2-4 709, SMPTE RP177

Video #2
ID : 8
Format : JPEG
Codec ID : jpeg
Duration : 1h 35mn
Bit rate mode : Variable
Bit rate : 2 125 bps
Width : 640 pixels
Height : 270 pixels
Display aspect ratio : 2.40:1
Frame rate mode : Variable
Frame rate : 0.005 fps
Minimum frame rate : 0.002 fps
Maximum frame rate : 0.008 fps
Color space : YUV
Chroma subsampling : 4:2:0
Bit depth : 8 bits
Compression mode : Lossy
Bits/(Pixel*Frame) : 2.459
Stream size : 1.42 MiB (0%)
Language : English
Encoded date : UTC 2015-03-27 09:01:08
Tagged date : UTC 2015-03-27 09:01:09

Audio #1
ID : 2
Format : AAC
Format/Info : Advanced Audio Codec
Format profile : LC
Codec ID : 40
Duration : 1h 35mn
Bit rate mode : Variable
Bit rate : 157 Kbps
Maximum bit rate : 242 Kbps
Channel(s) : 2 channels
Channel positions : Front: L R
Sampling rate : 48.0 KHz
Compression mode : Lossy
Stream size : 107 MiB (6%)
Language : Russian
Encoded date : UTC 2015-03-27 09:00:57
Tagged date : UTC 2015-03-27 09:01:03

Audio #2
ID : 3
Format : AAC
Format/Info : Advanced Audio Codec
Format profile : LC
Codec ID : 40
Duration : 1h 35mn
Bit rate mode : Variable
Bit rate : 157 Kbps
Maximum bit rate : 250 Kbps
Channel(s) : 2 channels
Channel positions : Front: L R
Sampling rate : 48.0 KHz
Compression mode : Lossy
Stream size : 107 MiB (6%)
Language : English
Encoded date : UTC 2015-03-27 09:00:57
Tagged date : UTC 2015-03-27 09:01:03

Text #1
ID : 4
Format : Timed text
Muxing mode : sbtl
Codec ID : tx3g
Duration : 1h 35mn
Bit rate mode : Variable
Bit rate : 9 bps
Stream size : 6.18 KiB (0%)
Language : Russian
Encoded date : UTC 2015-03-27 09:00:57
Tagged date : UTC 2015-03-27 09:00:57

Text #2
ID : 5
Format : Timed text
Muxing mode : sbtl
Codec ID : tx3g
Duration : 1h 35mn
Bit rate mode : Variable
Bit rate : 101 bps
Stream size : 70.3 KiB (0%)
Language : Russian
Encoded date : UTC 2015-03-27 09:00:57
Tagged date : UTC 2015-03-27 09:00:57

Text #3
ID : 6
Format : Timed text
Muxing mode : sbtl
Codec ID : tx3g
Duration : 1h 32mn
Bit rate mode : Variable
Bit rate : 83 bps
Stream size : 56.2 KiB (0%)
Language : English
Encoded date : UTC 2015-03-27 09:00:57
Tagged date : UTC 2015-03-27 09:00:57

Text #4
ID : 7
Format : Apple text
Codec ID : text
Duration : 1h 35mn
Bit rate mode : Variable
Bit rate : 1 bps
Stream size : 663 Bytes (0%)
Language : English
Encoded date : UTC 2015-03-27 09:01:03
Tagged date : UTC 2015-03-27 09:01:03

Menu
00:00:00.000 : Chapter 1
00:02:57.302 : Chapter 2
00:05:39.714 : Chapter 3
00:08:35.098 : Chapter 4
00:12:08.561 : Chapter 5
00:15:07.782 : Chapter 6
00:19:24.330 : Chapter 7
00:22:20.172 : Chapter 8
00:26:07.316 : Chapter 9
00:28:59.655 : Chapter 10
00:33:01.354 : Chapter 11
00:37:26.035 : Chapter 12
00:41:06.923 : Chapter 13
00:43:14.717 : Chapter 14
00:47:01.986 : Chapter 15
00:50:52.299 : Chapter 16
00:53:13.315 : Chapter 17
00:56:30.262 : Chapter 18
01:00:15.570 : Chapter 19
01:03:57.375 : Chapter 20
01:06:48.463 : Chapter 21
01:09:09.979 : Chapter 22
01:11:52.099 : Chapter 23
01:15:53.299 : Chapter 24
01:18:52.853 : Chapter 25
01:21:12.951 : Chapter 26
01:23:33.592 : Chapter 27
01:27:11.977 : Chapter 28
x264 [info]: frame I:1811 Avg QP:15.19 size:104405
x264 [info]: frame P:41313 Avg QP:18.87 size: 20871
x264 [info]: frame B:94132 Avg QP:22.05 size: 5554
x264 [info]: consecutive B-frames: 7.7% 6.8% 14.4% 39.0% 14.7% 14.2% 3.2%
x264 [info]: mb I I16..4: 8.7% 50.9% 40.4%
x264 [info]: mb P I16..4: 1.4% 7.3% 3.1% P16..4: 29.3% 18.8% 15.4% 0.0% 0.0% skip:24.7%
x264 [info]: mb B I16..4: 0.1% 0.9% 0.5% B16..8: 30.8% 8.4% 3.9% direct: 3.0% skip:52.3% L0:41.7% L1:43.4% BI:14.9%
x264 [info]: 8x8 transform intra:58.7% inter:60.6%
x264 [info]: coded y,uvDC,uvAC intra: 83.7% 84.4% 65.1% inter: 19.3% 17.7% 6.5%
x264 [info]: i16 v,h,dc,p: 20% 23% 8% 50%
x264 [info]: i8 v,h,dc,ddl,ddr,vr,hd,vl,hu: 9% 10% 5% 9% 13% 13% 14% 12% 14%
x264 [info]: i4 v,h,dc,ddl,ddr,vr,hd,vl,hu: 8% 8% 3% 9% 15% 14% 15% 12% 15%
x264 [info]: i8c dc,h,v,p: 40% 25% 17% 18%
x264 [info]: Weighted P-Frames: Y:2.6% UV:1.4%
x264 [info]: ref P L0: 55.3% 13.5% 10.0% 6.0% 3.8% 4.2% 2.7% 2.1% 1.7% 0.6% 0.0%
x264 [info]: ref B L0: 79.5% 8.2% 5.4% 2.2% 2.0% 1.3% 1.0% 0.3%
x264 [info]: ref B L1: 92.3% 7.7%
x264 [info]: kb/s:2199.72

Apple TV, iPad, iPhone, iPod Touch.
Windows VLC media player
Download

( )!

  ·   torrent ()  ·  

info []  [] 

Ghost48

: :

: 7 4

: 126


post 28--2015 17:05 ( 8 ) [-]0[+]

[] 

!
info []  [] 

post 27--2016 05:06 ( 1 7 ) [-]0[+]

(iPhone/iPod Touch/iPad) (Apple Mobile Device Software)

timewritter
 
:    

: 06- 16:13

: GMT + 4