Ошибка

Нерассказанная история Соединенных Штатов Оливера Стоуна / The Untold History of the United States (Оливер Стоун) [10 серий из 10] [2012, Документальный, военный, история, HDTV 1080i]

Ответить на тему
 
Автор Сообщение

karlmenni

Пол: Пол:Муж

Стаж: 1 год 11 месяцев

Сообщений: 1236

Россия
Рейтинг

post 17-Мар-2015 21:41 2[+]

[Цитировать] 

Нерассказанная история Соединенных Штатов Оливера Стоуна / The Untold History of the United States

pic="http://i.imgur.com/5s2nMxX.png"
Год выпуска: 2012
Страна: США, Ixtlan Productions, Showtime
Жанр: Документальный, военный, история
Продолжительность: 10 x ~ 00:59:00
Перевод: Профессиональный одноголосый
Субтитры:
Нет
В ролях: Оливер Стоун, Алан Ширман, Джим Уорд, Андре Соглиуззо, Крис Эджерли, Алекс Видов, Chris Cox, Грег Берг, Генри Уоллес, Гарри С. Трумэн
Режиссёр: Оливер Стоун
Десятисерийный фильм Оливера Стоуна "Нерассказанная история США" поднимает завесу над многими тайнами американской истории. Оливер Стоун, американский кинорежиссер, обладатель множества кинопремий, в том числе трех "Оскаров", считает, что понятие американской исключительности прочно завладело умами американцев. Большинство при этом никогда не признают, что у США есть имперские замашки. Однако история говорит о другом. Атомные бомбежки Хиросимы и Нагасаки, главная роль в развязывании холодной войны, финансирование исламских фундаменталистов ради борьбы с СССР и их союзниками, нарушение президентами США Конституции своей страны – эти и многие другие примеры неуклонно свидетельствуют о том, что исторические факты часто толкуются так, как это выгодно американским политикам. Есть ли у Америки возможность измениться? На этот вопрос пытаются ответить авторы фильма. Стоун — обладатель трех «Оскаров». Он дважды был награжден за лучшую режиссерскую работу (в 1987 году получил статуэтку за «Взвод», а в 1990 — за «Рожденного четвертого июля») и один раз за лучший адаптированный сценарий («Полуночный экспресс» в 1979 году).
Качество: HDTV 1080i
Формат: MKV
Видео кодек: MPEG-4/AVC
Видео: AVC, 1920x1080 (16:9), 25.000 fps, 10.3 Mbps (0.199 bit/pixel)
Аудио 1: AC-3, 48.0 KHz, 2 ch, 192 Kbps, CBR

  • Chapter 1: World War Two - Глава 1. Вторая мировая война.
  • Chapter 2: Roosevelt, Truman and Wallace - Глава 2. Рузвельт, Трумэн, Уоллес.
  • Chapter 3: The Bomb - Глава 3. Бомба.
  • Chapter 4: The Cold War 1945-1950 - Глава 4. Холодная война 1945-1950.
  • Chapter 5: The 50s - Eisenhower, the Bomb & the Third World - Глава 5. 50-е годы: Эйзенхауэр, бомба и страны третьего мира.
  • Chapter 6: JFK - To the Brink - Джон Фицджеральд Кеннеди: На грани.
  • Chapter 7: Johnson, Nixon & Vietnam: Reversal of Fortune - Джонсон, Никсон и Вьетнам: Как отвернулась фортуна.
  • Chapter 8: Reagan, Gorbachev & Third World - Rise of the Right - Рейган, Горбачев и третий мир: Усиление правых сил.
  • Chapter 9: Bush & Clinton - Squandered Peace and New World Order - Буш, Клинтон: Победа США, новый мировой порядок.
  • Chapter 10: Bush & Obama - Age of Terror - Буш, Обама: Эра террора.

Код:

Общее
Уникальный идентификатор                 : 136237765895926583323720344933771955958 (0x667E7075477888CEB162C66F7CC6CEF6)
Полное имя                               : C:\MyFiles\FILM\Нерассказанная история США\Нерассказанная история США часть 1.mkv
Формат                                   : Matroska
Версия формата                           : Version 2
Размер файла                             : 4,34 Гбайт
Продолжительность                        : 57 м.
Общий поток                              : 10,7 Мбит/сек
Программа кодирования                    : Lavf52.64.2
Библиотека кодирования                   : Lavf52.64.2

Видео
Идентификатор                            : 1
Формат                                   : AVC
Формат/Информация                        : Advanced Video Codec
Профиль формата                          : High@L4.0
Параметр CABAC формата                   : Да
Параметр ReFrames формата                : 4 кадра
Идентификатор кодека                     : V_MPEG4/ISO/AVC
Продолжительность                        : 57 м.
Битрейт                                  : 10,3 Мбит/сек
Ширина                                   : 1920 пикселей
Высота                                   : 1080 пикселей
Соотношение сторон                       : 16:9
Режим частоты кадров                     : Постоянный
Частота кадров                           : 25,000 кадров/сек
Стандарт вещания                         : Component
Цветовое пространство                    : YUV
Субдискретизация насыщенности            : 4:2:0
Битовая глубина                          : 8 бит
Тип развёртки                            : Чересстрочная
Порядок развёртки                        : Верхнее поле первое
Бит/(Пиксели*Кадры)                      : 0.199
Размер потока                            : 4,18 Гбайт (96%)
Default                                  : Да
Forced                                   : Нет
Основные цвета                           : BT.709
Характеристики трансфера                 : BT.709
Коэффициенты матрицы                     : BT.709
colour_range                             : Limited

Аудио
Идентификатор                            : 2
Формат                                   : AC-3
Формат/Информация                        : Audio Coding 3
Расширение режима                        : CM (complete main)
Параметр Endianness формата              : Big
Идентификатор кодека                     : A_AC3
Продолжительность                        : 57 м.
Вид битрейта                             : Постоянный
Битрейт                                  : 192 Кбит/сек
Каналы                                   : 2 канала
Расположение каналов                     : Front: L R
Частота                                  : 48,0 КГц
Битовая глубина                          : 16 бит
Метод сжатия                             : С потерями
Размер потока                            : 79,6 Мбайт (2%)
Default                                  : Да
Forced                                   : Нет


info [Профиль]  [ЛС] 

RomeoZero

Пол: Пол:Муж

Стаж: 7 лет 1 месяц

Сообщений: 202

Россия
Рейтинг

post 18-Мар-2015 08:56 (спустя 11 часов) [-]0[+]

[Цитировать] 

Потрясающая вещь,смотреть всем рекомендую.

_________________
info [Профиль]  [ЛС] 

Rafle

Пол: Пол:Муж

Стаж: 5 лет 5 месяцев

Сообщений: 68

Россия
Рейтинг

post 18-Мар-2015 11:46 (спустя 2 часа 50 минут) [-]0[+]

[Цитировать] 

забираю! в таком качестве просто замечательно! стоит хотя бы раз посмотреть для ознакомления!!!
info [Профиль]  [ЛС] 

frostbound

Пол: Пол:Муж

Стаж: 4 года 3 месяца

Сообщений: 24

Россия
Рейтинг

post 18-Мар-2015 22:06 (спустя 10 часов) [-]0[+]

[Цитировать] 

спасибо забираю, а то прошлая раздача умерла на 7 серии
info [Профиль]  [ЛС] 

velmas

Стаж: 3 года 7 месяцев

Сообщений: 128

Предупреждений: 1

Рейтинг

post 18-Мар-2015 22:48 (спустя 42 минуты) [-]0[+]

[Цитировать] 

Нерассказанная история Соединенных Штатов Оливера Стоуна / The Untold History of the United States (Оливер Стоун) [10 серий из 10] [2012, Документальный, военный, история, HDTV 1080i]
Серий 9, прошу исправить.
info [Профиль]  [ЛС] 

karlmenni

Пол: Пол:Муж

Стаж: 1 год 11 месяцев

Сообщений: 1236

Россия
Рейтинг

post 19-Мар-2015 02:15 (спустя 3 часа) [-]0[+]

[Цитировать] 

velmas

_________________
info [Профиль]  [ЛС] 

velmas

Стаж: 3 года 7 месяцев

Сообщений: 128

Предупреждений: 1

Рейтинг

post 12-Апр-2015 03:10 (спустя 24 дня) [-]0[+]

[Цитировать] 

karlmenni писал(а):

velmas
Сори, признаю, недоглядел bk
info [Профиль]  [ЛС] 
Показать сообщения:    
Ответить на тему

Текущее время: 08-Дек 18:19

Часовой пояс: GMT + 4



Вы не можете начинать темы
Вы не можете отвечать на сообщения
Вы не можете редактировать свои сообщения
Вы не можете удалять свои сообщения
Вы не можете голосовать в опросах
Вы не можете прикреплять файлы к сообщениям
Вы не можете скачивать файлы