Ошибка

Джеймс Браун: Путь наверх / Get on Up (Тейт Тейлор) [2014, Драма, биография, музыка, BDRemux 1080p]

Ответить на тему
 
Автор Сообщение

karlmenni

Пол: Пол:Муж

Стаж: 1 год 11 месяцев

Сообщений: 1235

Россия
Рейтинг

post 13-Мар-2015 17:09 1[+]

[Цитировать] 

Джеймс Браун: Путь наверх / Get on Up


Год выпуска: 2014
Страна: США
Жанр: Драма, биография, музыка
Продолжительность: 02:18:50
Перевод: Дублированный Лицензия
Субтитры:
Русский, Английский
В ролях: Чэдвик Боузмэн, Нелсан Эллис, Виола Дэвис, Октавия Спенсер, Дэн Эйкройд, Ленни Джеймс, Фред Меламед, Крэйг Робинсон, Джилл Скотт, Джош Хопкинс
Режиссёр: Тейт Тейлор
В основу фильма легла невероятная история жизни кумира миллионов, иконы сцены - Джеймса Брауна. Его боготворили не только фанаты, но и музыканты. Он был легендой эпохи - его имя одним из первых включили в Зал славы рок-н-ролла.
Качество: BDRemux 1080p
Формат: MKV
Видео кодек: MPEG-4/AVC
Аудио кодек: AC3/DTS
Видео: AVC, 1920x1080 (16:9), 23.976 fps, 28.0 Mbps (0.564 bit/pixel)
Аудио 1: DTS, 48.0 KHz, 6 ch, 755 Kbps, CBR (Russian)
Аудио 2: AC-3, 48.0 KHz, 6 ch, 448 Kbps, CBR (Russian)
Аудио 3: DTS MA / Core, 48.0 KHz, 6 ch, 1 846 Kbps / 1 510 Kbps, VBR (English)



Код:

Общее
Уникальный идентификатор                 : 172971797315774903169214964079923282748 (0x82212809BB4CD521B5C1879C5CAFC33C)
Полное имя                               : C:\MyFiles\1\Get_on_up_karlmenni_BDRemux1080p.mkv
Формат                                   : Matroska
Версия формата                           : Version 4 / Version 2
Размер файла                             : 30,8 Гбайт
Продолжительность                        : 2 ч. 18 м.
Режим общего битрейта                    : Переменный
Общий поток                              : 31,7 Мбит/сек
Название фильма                          : Get_on_up_karlmenni_BDRemux1080p
Дата кодирования                         : UTC 2015-03-13 12:05:53
Программа кодирования                    : mkvmerge v5.9.0 ('On The Loose') built on Dec 31 2012 17:36:59
Библиотека кодирования                   : libebml v1.3.0 + libmatroska v1.4.0

Видео
Идентификатор                            : 1
Формат                                   : AVC
Формат/Информация                        : Advanced Video Codec
Профиль формата                          : High@L4.1
Параметр CABAC формата                   : Да
Параметр ReFrames формата                : 4 кадра
Режим смешивания                         : Header stripping
Идентификатор кодека                     : V_MPEG4/ISO/AVC
Продолжительность                        : 2 ч. 18 м.
Вид битрейта                             : Переменный
Максимальный битрейт                     : 35,0 Мбит/сек
Ширина                                   : 1920 пикселей
Высота                                   : 1080 пикселей
Соотношение сторон                       : 16:9
Режим частоты кадров                     : Постоянный
Частота кадров                           : 23,976 кадра/сек
Цветовое пространство                    : YUV
Субдискретизация насыщенности            : 4:2:0
Битовая глубина                          : 8 бит
Тип развёртки                            : Прогрессивная
Заголовок                                : Get_on_Up
Default                                  : Да
Forced                                   : Нет

Аудио #1
Идентификатор                            : 2
Формат                                   : DTS
Формат/Информация                        : Digital Theater Systems
Режим                                    : 16
Параметр Endianness формата              : Big
Режим смешивания                         : Header stripping
Идентификатор кодека                     : A_DTS
Продолжительность                        : 2 ч. 18 м.
Вид битрейта                             : Постоянный
Битрейт                                  : 768 Кбит/сек
Каналы                                   : 6 каналов
Расположение каналов                     : Front: L C R, Side: L R, LFE
Частота                                  : 48,0 КГц
Битовая глубина                          : 24 бит
Метод сжатия                             : С потерями
Размер потока                            : 763 Мбайт (2%)
Заголовок                                : Дубляж DTS russian
Язык                                     : Russian
Default                                  : Да
Forced                                   : Нет

Аудио #2
Идентификатор                            : 3
Формат                                   : AC-3
Формат/Информация                        : Audio Coding 3
Расширение режима                        : CM (complete main)
Параметр Endianness формата              : Big
Режим смешивания                         : Header stripping
Идентификатор кодека                     : A_AC3
Продолжительность                        : 2 ч. 18 м.
Вид битрейта                             : Постоянный
Битрейт                                  : 448 Кбит/сек
Каналы                                   : 6 каналов
Расположение каналов                     : Front: L C R, Side: L R, LFE
Частота                                  : 48,0 КГц
Битовая глубина                          : 16 бит
Метод сжатия                             : С потерями
Размер потока                            : 445 Мбайт (1%)
Заголовок                                : Дубляж AC3 russian
Язык                                     : Russian
Default                                  : Нет
Forced                                   : Нет

Аудио #3
Идентификатор                            : 4
Формат                                   : DTS
Формат/Информация                        : Digital Theater Systems
Профиль формата                          : MA / Core
Режим                                    : 16
Параметр Endianness формата              : Big
Режим смешивания                         : Header stripping
Идентификатор кодека                     : A_DTS
Продолжительность                        : 2 ч. 18 м.
Вид битрейта                             : Переменный
Битрейт                                  : Неизвестно / 1509 Кбит/сек
Каналы                                   : 6 каналов
Расположение каналов                     : Front: L C R, Side: L R, LFE
Частота                                  : 48,0 КГц
Битовая глубина                          : 24 бит
Метод сжатия                             : Без потерь / Lossy
Язык                                     : English
Default                                  : Нет
Forced                                   : Нет

Текст #1
Идентификатор                            : 5
Формат                                   : PGS
Режим смешивания                         : zlib
Идентификатор кодека                     : S_HDMV/PGS
Идентификатор кодека/Информация          : The same subtitle format used on BDs/HD-DVDs
Язык                                     : Russian
Default                                  : Да
Forced                                   : Нет

Текст #2
Идентификатор                            : 6
Формат                                   : PGS
Режим смешивания                         : zlib
Идентификатор кодека                     : S_HDMV/PGS
Идентификатор кодека/Информация          : The same subtitle format used on BDs/HD-DVDs
Язык                                     : Russian
Default                                  : Нет
Forced                                   : Нет

Текст #3
Идентификатор                            : 7
Формат                                   : PGS
Режим смешивания                         : zlib
Идентификатор кодека                     : S_HDMV/PGS
Идентификатор кодека/Информация          : The same subtitle format used on BDs/HD-DVDs
Язык                                     : English
Default                                  : Нет
Forced                                   : Нет

info [Профиль]  [ЛС] 

_Qwest_

Пол: Пол:Муж

Стаж: 2 года 11 месяцев

Сообщений: 353

СССР
Рейтинг

post 13-Мар-2015 22:35 (спустя 5 часов) [-]0[+]

[Цитировать] 

Качаю, посмотрим... Спасибо!

_________________
CPU: i5-3570k @ 4,5Ггц MB: MSI Z77A-G41 GPU: MSI GTX970 Gaming 4G RAM: 6GB SSD: Corsair Neutron gtx 120GB HDD1: WD Purple 1TB HDD2: Hitachi 320GB
info [Профиль]  [ЛС] 

post 06-Фев-2016 12:21 (спустя 10 месяцев 23 дня) [-]0[+]

Топик был перенесен из форума Новинки 2014-2015 (Web-DL, DVD, HD DVD, Blu-ray, HD Rips) в форум Зарубежное кино | HD DVD и Blu-ray

LyaKich
 
Показать сообщения:    
Ответить на тему

Текущее время: 06-Дек 14:19

Часовой пояс: GMT + 4



Вы не можете начинать темы
Вы не можете отвечать на сообщения
Вы не можете редактировать свои сообщения
Вы не можете удалять свои сообщения
Вы не можете голосовать в опросах
Вы не можете прикреплять файлы к сообщениям
Вы не можете скачивать файлы