Ошибка

Техники / Специалисты / Криминальный дизайнер / The Technicians / The Con Artists (Ким Хон Сон / Kim Hong Sun) [2014, Южная Корея, боевик, приключения, WEB-DLRip] MVO (STEPonee)

Ответить на тему
 
Автор Сообщение

L

Пол: Пол:Муж

Стаж: 6 лет 7 месяцев

Сообщений: 10779

Украина
Рейтинг

post 10-Мар-2015 09:29 0[+]

[Цитировать] 

Техники / Специалисты / Криминальный дизайнер / The Technicians / The Con Artists / 기술자들 / Gi-sool-ja-deul

Год выпуска: 2014
Страна: Южная Корея
Жанр: боевик, приключения
Продолжительность: 01:56:26
Перевод: любительский (многоголосый закадровый) [STEPonee]
Русские субтитры: нет

Режиссёр: Ким Хон Сон (Kim Hong Sun)
В ролях:
Ким У Бин (Kim Woo Bin) - Чжи Хёк, Ли Хён У (Lee Hyun Woo) - Чжон Пэ, Го Чхан Сок (Ko Chang Seok) - Гу Ин, Чо Юн Хи (Jo Yoon Hee) - Ын Ха, Ким Ён Чхоль (Kim Young Chul) - президент Чо, Им Чжу Хван (Lim Ju Hwan) - начальник отдела Ли

Описание
История о приключениях лучшего взломщика сейфов (Ким У Бин), хакера (Ли Хён У) и их друзей. Преступная группа намерена похитить 150 миллиардов вон из офиса таможни в столичном аэропорту Инчхон. Эти безумные деньги появятся там всего на сорок минут, поэтому времени на ошибку у парней нет.

Сэмпл


Качество: WEB-DLRip (The.Technicians.2014.1080p.WEB-DL.H264-REALHD)
Формат: AVI
Видео: XviD, 720x304 (16:9), 23,976 к/с, 1660 кбит/с
Аудио: MP3 2.0, 48 кГц, 128 кбит/с
Георгий Ерунков
Ллойд
Макс Фривинг
Илья Лаврин
Натиа Макаридзе
Игорь Полуэктов
Вадим Химеров
Наталья Скребнева
Перевод на русский язык: ФСГ "Азалии"
General
Complete name : The.Technicians.2014.WEB-DLRip.XviD.MP3.MVO.STEPonee.avi
Format : AVI
Format/Info : Audio Video Interleave
File size : 1.47 GiB
Duration : 1h 57mn
Overall bit rate : 1 797 Kbps
Writing application : VirtualDubMod 1.5.10.2 (build 2542/release)
Writing library : VirtualDubMod build 2542/release

Video
ID : 0
Format : MPEG-4 Visual
Format profile : Advanced Simple@L5
Format settings, BVOP : 1
Format settings, QPel : No
Format settings, GMC : No warppoints
Format settings, Matrix : Default (H.263)
Codec ID : XVID
Codec ID/Hint : XviD
Duration : 1h 57mn
Bit rate : 1 660 Kbps
Width : 720 pixels
Height : 304 pixels
Display aspect ratio : 2.35:1
Frame rate : 23.976 fps
Color space : YUV
Chroma subsampling : 4:2:0
Bit depth : 8 bits
Scan type : Progressive
Compression mode : Lossy
Bits/(Pixel*Frame) : 0.316
Stream size : 1.36 GiB (92%)
Writing library : XviD 1.2.1 (UTC 2008-12-04)

Audio
ID : 1
Format : MPEG Audio
Format version : Version 1
Format profile : Layer 3
Mode : Joint stereo
Mode extension : MS Stereo
Codec ID : 55
Codec ID/Hint : MP3
Duration : 1h 57mn
Bit rate mode : Constant
Bit rate : 128 Kbps
Channel(s) : 2 channels
Sampling rate : 48.0 KHz
Compression mode : Lossy
Stream size : 107 MiB (7%)
Alignment : Aligned on interleaves
Interleave, duration : 42 ms (1.00 video frame)
Interleave, preload duration : 504 ms
Виктория Гражинская, Василий Харченко - тайминг
Юрий Балякин, Натиа Макаридзе - обработка звука, монтаж
Екатерина Проц - постер
info [Профиль]  [ЛС] 

lamer_22

Пол: Пол:Муж

Стаж: 7 лет 3 месяца

Сообщений: 144

Рейтинг

post 10-Мар-2015 10:16 (спустя 46 минут) [-]1[+]

[Цитировать] 

Вопрос сколько весят 150 миллиардов деньгами=)))))
info [Профиль]  [ЛС] 

Stay_C_Shtrih

Стаж: 5 лет 5 месяцев

Сообщений: 46

Россия
Рейтинг

post 10-Мар-2015 12:12 (спустя 1 час 56 минут) [-]0[+]

[Цитировать] 

как кинцо?
info [Профиль]  [ЛС] 

ArchibaldH

Пол: Пол:Муж

Стаж: 3 года 8 месяцев

Сообщений: 23

Россия
Рейтинг

post 10-Мар-2015 12:28 (спустя 15 минут) [-]0[+]

[Цитировать] 

Тоже интересно, кто смотрел?
info [Профиль]  [ЛС] 

drunia2100

Пол: Пол:Муж

Стаж: 7 лет 6 месяцев

Сообщений: 334

Россия
Рейтинг

post 10-Мар-2015 14:44 (спустя 2 часа 16 минут) [-]0[+]

[Цитировать] 

Всё это здорово но хотелось бы в норм качестве увидеть. Спс
info [Профиль]  [ЛС] 

Dale

Стаж: 5 лет 5 месяцев

Сообщений: 158

СССР
Рейтинг

post 10-Мар-2015 18:04 (спустя 3 часа) [-]3[+]

[Цитировать] 

lamer_22 писал(а):

Вопрос сколько весят 150 миллиардов деньгами=)))))
Миллион двадцатидолларовыми банкнотами весит - 50 кг, пятидесятидолларовыми банкнотами - 20 кг. !50 миллиардов будут весить или 7500 тонн двадцатками или 3000 тонн пятидесятками. В первом случае нужно 375, во втором 150 Камазов двадцатитонников чтобы просто увезти всю эту прорву денег.
info [Профиль]  [ЛС] 

kirillre4

Стаж: 3 года 8 месяцев

Сообщений: 41

Рейтинг

post 10-Мар-2015 18:51 (спустя 47 минут) [-]2[+]

[Цитировать] 

Корейские воны, о которых речь, доступны в купюрах номиналом до 50 000, так что больше одного камаза не понадобится.
info [Профиль]  [ЛС] 

Ham_R

Пол: Пол:Муж

Стаж: 7 лет 8 месяцев

Сообщений: 60

Украина
Рейтинг

post 10-Мар-2015 19:40 (спустя 48 минут) [-]1[+]

[Цитировать] 

Народ скажу так !!!!
Тра_айте индийские, французкие, американские фильмы.
Корея рулит .....Ход Бога, Человек из не откуда, Атакуй заправку 2 )))))))
СПАСИБО ИМ ЗА ЭТО
info [Профиль]  [ЛС] 

FTyrail

Пол: Пол:Муж

Стаж: 7 лет 5 месяцев

Сообщений: 269

Предупреждений: 1

Россия
Рейтинг

post 10-Мар-2015 21:58 (спустя 2 часа 18 минут) [-]0[+]

[Цитировать] 

Ham_R

ты умеешь убеждать, качаю
info [Профиль]  [ЛС] 

trollmann

Пол: Пол:Муж

Стаж: 7 лет 2 месяца

Сообщений: 97

Россия
Рейтинг

post 11-Мар-2015 14:11 (спустя 16 часов) [-]0[+]

[Цитировать] 

Dale писал(а):

lamer_22 писал(а):

Вопрос сколько весят 150 миллиардов деньгами=)))))
Миллион двадцатидолларовыми банкнотами весит - 50 кг, пятидесятидолларовыми банкнотами - 20 кг. !50 миллиардов будут весить или 7500 тонн двадцатками или 3000 тонн пятидесятками. В первом случае нужно 375, во втором 150 Камазов двадцатитонников чтобы просто увезти всю эту прорву денег.
150 миллионов
Фильм прикольный
info [Профиль]  [ЛС] 

Ani77

Стаж: 3 года 8 месяцев

Сообщений: 107

Рейтинг

post 13-Мар-2015 03:09 (спустя 1 день 12 часов) [-]0[+]

[Цитировать] 

А что по поводу качества - 720p завезут ?
info [Профиль]  [ЛС] 

Хуцо

Пол: Пол:Муж

Стаж: 6 лет 10 месяцев

Сообщений: 7

Россия
Рейтинг

post 14-Мар-2015 01:56 (спустя 22 часа) [-]0[+]

[Цитировать] 

Потеря времени
info [Профиль]  [ЛС] 

post 05-Фев-2016 00:59 (спустя 10 месяцев 21 день) [-]0[+]

Топик был перенесен из форума Новинки 2014-2015 (Rips) в форум Классика зарубежного кино | Rips

LyaKich
 
Показать сообщения:    
Ответить на тему

Текущее время: 04-Дек 22:28

Часовой пояс: GMT + 4



Вы не можете начинать темы
Вы не можете отвечать на сообщения
Вы не можете редактировать свои сообщения
Вы не можете удалять свои сообщения
Вы не можете голосовать в опросах
Вы не можете прикреплять файлы к сообщениям
Вы не можете скачивать файлы