Ошибка

Марина Девятова - В день рождения с любовью... (Юбилейный концерт) (2013) WEBRip [H.264/720p-LQ]

Ответить на тему
 
Автор Сообщение

Ванчикманec

Пол: Пол:Муж

Стаж: 3 года 8 месяцев

Сообщений: 1

Россия
Рейтинг

post 07-Мар-2015 13:27 0[+]

[Цитировать] 

Марина Девятова - В день рождения с любовью... (Юбилейный концерт) (2013)
"Производство: Россия
Жанр: Pop

Режиссер: Неизвестен
Исполнители: Марина Девятова, ЯR-Денс, Анатолий Ядрышников, Михаил Морозов

Описание фильма:
Юбилейный концерт Марины Девятовой, который прошел 8 декабря 2013 года в ГЦКЗ Россия. Костюмированное постановочное шоу с живыми музыкантами, танцами и звездами российской эстрады.

Девятова Марина - В день рождения с любовью

Продолжительность: 01:56:15
Качество видео: WEBRip

Видеокодек: MPEG-4 AVC/H.264
Битрейт видео: ~2798kb/s
Размер кадра: 1280x720
Аудиокодек: AAC, 2 ch
Битрейт аудио: 191kb/s

Треклист:
1 Дороженька (духовный стих) ( 0:00 )
2 Камаринская ( 03:09 )
3 Поговори со мною, мама ( 07:53 )
4 Калинка ( 11:37 )
5 Черёмушка ( 15:12 )
6 Осенняя роса ( 19:22 )
7 Гуляй, Россия! ( 23:50 )
8 Где тропа за рекой запорошена ( 26:44 )
9 Московская кадриль ( 30:26 )
10 Старый клён ( 34:14 )
11 Какая песня без баяна ( 37:17 )
12 За Уралом на Кубани ( 41:11 )
13 Полно вам, снежочки ( 45:27 )
14 Ой, Ладо, Ладо ( 49:19 )
15 В горнице ( 54:01 )
16 Грешный человечек (духовный стих) ( 57:40 )
17 Виноградная косточка ( 01:01:59 )
18 В лунном сиянии ( 01:06:09 )
19 Не для тебя ( 01:09:43 )
20 Частушки ( 01:13:41 )
21 Где она живёт ( 01:16:09 )
22 Белоснежная вишня ( 01:18:34 )
23 Галя ( 01:21:40 )
24 Säkkijärven ( 01:25:37 )
25 Танец солнца и огня (Хава Нагила) ( 01:29:40 )
26 Попурри ( 01:33:33 )
27 Тбилисо ( 01:37:00 )
28 Нане цоха ( 01:40:30 )
29 Распрягайте, хлопцы, коней ( 01:43:48 )
30 Ты - огонь, я - вода ( 01:47:05 )
31 Я желаю вам счастья ( 01:51:02 )

Код:

Видео
Идентификатор                            : 1
Формат                                   : AVC
Формат/Информация                        : Advanced Video Codec
Профиль формата                          : High@L3.1
Параметр CABAC формата                   : Да
Параметр ReFrames формата                : 1 кадр
Параметр GOP формата                     : M=1, N=60
Идентификатор кодека                     : avc1
Идентификатор кодека/Информация          : Advanced Video Coding
Продолжительность                        : 1 ч. 56 м.
Битрейт                                  : 2798 Кбит/сек
Максимальный битрейт                     : 8310 Кбит/сек
Ширина                                   : 1280 пикселей
Высота                                   : 720 пикселей
Соотношение сторон                       : 16:9
Режим частоты кадров                     : Постоянный
Частота кадров                           : 25,000 кадров/сек
Цветовое пространство                    : YUV
Субдискретизация насыщенности            : 4:2:0
Битовая глубина                          : 8 бит
Тип развёртки                            : Прогрессивная
Бит/(Пиксели*Кадры)                      : 0.121
Размер потока                            : 2,27 Гбайт (94%)
Дата пометки                             : UTC 2014-11-08 14:00:08

Аудио
Идентификатор                            : 2
Формат                                   : AAC
Формат/Информация                        : Advanced Audio Codec
Профиль формата                          : LC
Идентификатор кодека                     : 40
Продолжительность                        : 1 ч. 56 м.
Вид битрейта                             : Переменный
Битрейт                                  : 192 Кбит/сек
Максимальный битрейт                     : 203 Кбит/сек
Каналы                                   : 2 канала
Расположение каналов                     : Front: L R
Частота                                  : 44,1 КГц
Метод сжатия                             : С потерями
Размер потока                            : 160 Мбайт (6%)
Заголовок                                : IsoMedia File Produced by Google, 5-11-2011
Дата кодирования                         : UTC 2014-11-08 13:58:09
Дата пометки                             : UTC 2014-11-08 14:00:08
Скриншоты:
Время раздачи: 24/7
info [Профиль]  [ЛС] 

koss555

Пол: Пол:Муж

Стаж: 4 года 10 месяцев

Сообщений: 1549

Россия
Рейтинг

post 07-Мар-2015 13:57 (спустя 29 минут) [-]0[+]

[Цитировать] 

 !  koss555:
А поправить нехотите раздчу как это положено?

_________________
info [Профиль]  [ЛС] 
Показать сообщения:    
Ответить на тему

Текущее время: 03-Дек 04:20

Часовой пояс: GMT + 4



Вы не можете начинать темы
Вы не можете отвечать на сообщения
Вы не можете редактировать свои сообщения
Вы не можете удалять свои сообщения
Вы не можете голосовать в опросах
Вы не можете прикреплять файлы к сообщениям
Вы не можете скачивать файлы