Ошибка

Вызов бездне / Deepsea Challenge (Джон Бруно / John Bruno, Рэй Кен / Ray Quint, Эндрю Уайт / Andrew Wight) [2014, США, Документальный, BDRip 1080p, 3D]

Ответить на тему
 
Автор Сообщение

b15h0p

Пол: Пол:Муж

Стаж: 5 лет 4 месяца

Сообщений: 21

Россия
Рейтинг

post 26-Фев-2015 01:43 1[+]

[Цитировать] 


Вызов бездне / Deepsea Challenge

Страна: США
Жанр: документальный
Год выхода: 2014
Продолжительность: 01:31:04
Перевод: Профессиональный (Закадровый, многоголосый)
Субтитры: нет
Режиссер: Джон Бруно / John Bruno, Рэй Кен / Ray Quint, Эндрю Уайт / Andrew Wight
В ролях: Джеймс Кэмерон, Френк Лолито, Лачлан Вудс, Пол Генри
О фильме: На Земле есть несколько мест, которых не коснулась история развития человечества. В полной темноте и безмолвии они хранят величайшие тайны Земли. Недоступные, как далекие планеты, они полны научных открытий. Одно из таких мест — Марианская впадина. Джеймс Кэмерон — самый известный и успешный режиссер в мире, еще и страстный исследователь океанов, ведомый мечтой всей его жизни, быть первым человеком, ныряющим в одиночку на дно неприступной и самой глубокой из всех известных на Земле Марианской впадины. Вызов бездне — захватывающая история, разворачивающаяся перед нами в 3D, об экспедиции исторического масштаба, которую можно сравнить разве что с первыми человеческими шагами по луне. Вызов бездне загипнотизирует зрителя любого возраста красотой новых форм жизни, трепетом от настоящих открытий. А самое главное, что все это здесь, на их родной планете.
Качество видео: BDRip 1080p
Формат видео: MKV
Видео кодек: AVC
Аудио кодек: AC3
Видео: 1920x1080 (16:9), 59.940 fps, AVC, ~20.0 Mbps
Аудио: 48,0 КГц, AC3 2.0 (L,R) , ~192 kb/s (2 ch)
3D: Горизонтальная анаморфная стереопара 60 fps / левый ракурс первый
Общее
Уникальный идентификатор : 229108718069385669190053257477342616785 (0xAC5CBBEBAF115BA2B2EFA722E7FBDCD1)
Полное имя : D:\Vizov_Bezdne_2014_BDRip_1080p.mkv
Формат : Matroska
Версия формата : Version 4 / Version 2
Размер файла : 12,8 Гбайт
Продолжительность : 1 ч. 31 м.
Общий поток : 20,2 Мбит/сек
Дата кодирования : UTC 2015-02-22 11:03:46
Программа кодирования : mkvmerge v7.0.0 ('Where We Going') 64bit built on Jun 9 2014 15:16:27
Библиотека кодирования : libebml v1.3.0 + libmatroska v1.4.1
_STATISTICS_WRITING_APP : mkvmerge v7.0.0 ('Where We Going') 64bit built on Jun 9 2014 15:16:27
_STATISTICS_WRITING_DATE_UTC : 2015-02-22 11:03:46
_STATISTICS_TAGS : BPS DURATION NUMBER_OF_FRAMES NUMBER_OF_BYTES
DURATION : 01:31:04.932000000
NUMBER_OF_FRAMES : 327568
NUMBER_OF_BYTES : 13638958724

Видео
Идентификатор : 1
Формат : AVC
Формат/Информация : Advanced Video Codec
Профиль формата : High@L4.2
Параметр CABAC формата : Да
Параметр ReFrames формата : 4 кадра
Идентификатор кодека : V_MPEG4/ISO/AVC
Продолжительность : 1 ч. 31 м.
Битрейт : 20,0 Мбит/сек
Ширина : 1920 пикселей
Высота : 1080 пикселей
Соотношение сторон : 16:9
Режим частоты кадров : Постоянный
Частота кадров : 59,880 кадров/сек
Частота кадров в оригинале : 59,940 кадров/сек
Цветовое пространство : YUV
Субдискретизация насыщенности : 4:2:0
Битовая глубина : 8 бит
Тип развёртки : Прогрессивная
Бит/(Пиксели*Кадры) : 0.161
Размер потока : 12,4 Гбайт (97%)
Библиотека кодирования : x264 core 130 r2273 b3065e6
Настройки программы : cabac=1 / ref=3 / deblock=1:0:0 / analyse=0x3:0x113 / me=hex / subme=7 / psy=1 / psy_rd=1.00:0.00 / mixed_ref=1 / me_range=16 / chroma_me=1 / trellis=1 / 8x8dct=1 / cqm=0 / deadzone=21,11 / fast_pskip=1 / chroma_qp_offset=-2 / threads=12 / lookahead_threads=2 / sliced_threads=0 / nr=0 / decimate=1 / interlaced=0 / bluray_compat=0 / constrained_intra=0 / bframes=3 / b_pyramid=2 / b_adapt=1 / b_bias=0 / direct=1 / weightb=1 / open_gop=0 / weightp=2 / keyint=250 / keyint_min=25 / scenecut=40 / intra_refresh=0 / rc_lookahead=40 / rc=abr / mbtree=1 / bitrate=20000 / ratetol=1.0 / qcomp=0.60 / qpmin=0 / qpmax=69 / qpstep=4 / ip_ratio=1.40 / aq=1:1.00
Default : Да
Forced : Нет

Аудио
Идентификатор : 2
Формат : AC-3
Формат/Информация : Audio Coding 3
Расширение режима : CM (complete main)
Параметр Endianness формата : Big
Идентификатор кодека : A_AC3
Продолжительность : 1 ч. 31 м.
Вид битрейта : Постоянный
Битрейт : 192 Кбит/сек
Каналы : 2 канала
Расположение каналов : Front: L R
Частота : 48,0 КГц
Битовая глубина : 16 бит
Метод сжатия : С потерями
Размер потока : 125 Мбайт (1%)
Язык : Russian
Default : Да
Forced : Нет
info [Профиль]  [ЛС] 

post 26-Фев-2015 02:31 (спустя 47 минут) [-]0[+]

Топик был перенесен из форума Анонсы в форум Новинки (3D)

BZzz
 

dram666

Пол: Пол:Муж

Стаж: 6 лет 9 месяцев

Сообщений: 38

Россия
Рейтинг

post 26-Фев-2015 09:50 (спустя 8 часов) [-]0[+]

[Цитировать] 

Забираю, спасибо!
info [Профиль]  [ЛС] 

post 13-Май-2015 13:52 (спустя 2 месяца 15 дней) [-]0[+]

Топик был перенесен из форума Новинки (3D) в форум 3D

BZzz
 
Показать сообщения:    
Ответить на тему

Текущее время: 08-Дек 11:57

Часовой пояс: GMT + 4



Вы не можете начинать темы
Вы не можете отвечать на сообщения
Вы не можете редактировать свои сообщения
Вы не можете удалять свои сообщения
Вы не можете голосовать в опросах
Вы не можете прикреплять файлы к сообщениям
Вы не можете скачивать файлы