Ошибка

Книга жизни / The Book of Life (Хорхе Р. Гутьеррес) [2014, мультфильм, фэнтези, комедия, приключения, семейный, HDRip]

Ответить на тему
 
Автор Сообщение

BZzz

Пол: Пол:Муж

Стаж: 5 лет 1 месяц

Сообщений: 3647

Россия
Рейтинг

post 25-Фев-2015 22:08 0[+]

[Цитировать] 

Книга жизни / The Book of Life




Год выпуска: 2014
Страна: США
Жанр: мультфильм, фэнтези, комедия, приключения, семейный
Продолжительность: 01:35:24
Перевод: Профессиональный (дублированный)[цифровая лицензия iTunes]

Режиссер: Хорхе Р. Гутьеррес

В ролях: Диего Луна (Diego Luna), Зои Салдана (Zoe Saldana), Ченнинг Татум (Channing Tatum), Рон Перлман (Ron Perlman), Кристина Эпплгейт (Christina Applegate), Айс Кьюб (Ice Cube), Кейт дель Кастильо (Kate del Castillo), Гектор Элизондо (Hector Elizondo)


Описание: В мультфильме описывается романтическая история любви на фоне празднования Дня мертвых в Мексике.

Бюджет: $50 000 000
Сборы в США: $50 150 619
Сборы в мире: + $45 754 570 = $95 905 189
Рейтинг MPAA:



Качество: HDRip
Формат: AVI
Видео кодек: XviD
Аудио кодек: AC3
Видео: 720x304 (2.35:1), 23.976 fps, XviD, 1 659 Kbps
Аудио #1: AC3, 384 Kbps, 48.0 KHz, 2 ch
General
Complete name : Kniga.Jizni.2014.D.HDRip.avi
Format : AVI
Format/Info : Audio Video Interleave
File size : 1.37 GiB
Duration : 1h 35mn
Overall bit rate : 2 052 Kbps
Movie name : Kn1g4.J1zn1.2014.P.HDRip.1400MB.uniongang.tv
Director : 3imeMachine
Writing application : VirtualDubMod 1.5.10.2 (build 2540/release)
Writing library : VirtualDubMod build 2540/release
Copyright : UNIONGANG&RUSTORRENTS

Video
ID : 0
Format : MPEG-4 Visual
Format profile : Advanced Simple@L5
Format settings, BVOP : Yes
Format settings, QPel : No
Format settings, GMC : No warppoints
Format settings, Matrix : Default (MPEG)
Codec ID : XVID
Codec ID/Hint : XviD
Duration : 1h 35mn
Bit rate : 1 659 Kbps
Width : 720 pixels
Height : 304 pixels
Display aspect ratio : 2.35:1
Frame rate : 23.976 fps
Color space : YUV
Chroma subsampling : 4:2:0
Bit depth : 8 bits
Scan type : Progressive
Bits/(Pixel*Frame) : 0.316
Stream size : 1.11 GiB (81%)
Writing library : XviD 1.2.1 (UTC 2008-12-04)

Audio
ID : 1
Format : AC-3
Format/Info : Audio Coding 3
Mode extension : CM (complete main)
Codec ID : 2000
Duration : 1h 35mn
Bit rate mode : Constant
Bit rate : 384 Kbps
Channel(s) : 2 channels
Channel positions : Front: L R
Sampling rate : 48.0 KHz
Bit depth : 16 bits
Stream size : 262 MiB (19%)
Alignment : Split accross interleaves
Interleave, duration : 42 ms (1.00 video frame)
Interleave, preload duration : 500 ms
info [Профиль]  [ЛС] 

post 05-Фев-2016 01:17 (спустя 11 месяцев 7 дней) [-]0[+]

Топик был перенесен из форума Новинки 2014-2015 (Rips) в форум Зарубежные полнометражные мультфильмы

LyaKich
 
Показать сообщения:    
Ответить на тему

Текущее время: 11-Дек 10:16

Часовой пояс: GMT + 4



Вы не можете начинать темы
Вы не можете отвечать на сообщения
Вы не можете редактировать свои сообщения
Вы не можете удалять свои сообщения
Вы не можете голосовать в опросах
Вы не можете прикреплять файлы к сообщениям
Вы не можете скачивать файлы