Ошибка

(Score) Kingsman: Секретная служба / Kingsman: The Secret Service. Original Soundtrack (Score) - 2015, FLAC (tracks+.cue)+cover, lossless

Ответить на тему
 
Автор Сообщение

Кasper

Пол: Пол:Муж

Стаж: 2 года 6 месяцев

Сообщений: 67

Россия
Рейтинг

post 22-Фев-2015 17:51 0[+]

[Цитировать] 

Kingsman: Секретная служба / Kingsman: The Secret Service. Original Soundtrack (Score)


pic="http://i59.fastpic.ru/big/2015/0222/53/aba8ba069eaa4a9c3c67095dac7b3d53.jpg"


Жанр: Score
Год издания данного носителя: 2015
Страна-производитель носителя: UK
Лейбл: La-La Land Records
Аудио кодек: FLAC
Тип рипа: tracks+.cue
Битрейт аудио: lossless
Продолжительность: 00:57:19
Полиграфия: Присутствует
Треклист:
1. Manners Maketh Man 1:38
2. The Medallion 2:14
3. Valentine 2:24
4. To Become a Kingsman 4:18
5. Pick a Puppy 2:13
6. Drinks with Valentine 2:39
7. Skydiving 3:37
8. Shame We Had to Grow Up 1:56
9. CD ONLY: Kentucky Christians 2:37
10. Curious Scars and Implants 3:08
11. Toast to a Kingsman 1:55
12. An 1815 Napoleonic Brandy 4:23
13. Eat, Drink, and Paaaaarty 1:53
14. Calculated Infiltration 7:54
15. CD ONLY: Out of Options 1:48
16. Hand On the Machine 2:21
17. Finale 3:56
18. CD ONLY: Original Valentine Ideas (Demo Suite) 6:25
X Lossless Decoder version 20141129 (148.1) 

XLD extraction logfile from 2015-02-21 09:22:19 -0600

Henry Jackman & Matthew Margeson / Kingsman: The Secret Service (La-La Land)

Used drive : TSSTcorp BDDVDW SE-506CB (revision TS00)
Media type : Pressed CD

Ripper mode : CDParanoia III 10.2
Disable audio cache : OK for the drive with a cache less than 2750KiB
Make use of C2 pointers : NO
Read offset correction : 6
Max retry count : 100
Gap status : Analyzed, Appended

TOC of the extracted CD
Track | Start | Length | Start sector | End sector
---------------------------------------------------------
1 | 00:00:00 | 01:37:64 | 0 | 7338
2 | 01:37:64 | 02:14:14 | 7339 | 17402
3 | 03:52:03 | 02:24:48 | 17403 | 28250
4 | 06:16:51 | 04:18:67 | 28251 | 47667
5 | 10:35:43 | 02:13:25 | 47668 | 57667
6 | 12:48:68 | 02:39:67 | 57668 | 69659
7 | 15:28:60 | 03:37:05 | 69660 | 85939
8 | 19:05:65 | 01:56:25 | 85940 | 94664
9 | 21:02:15 | 02:36:39 | 94665 | 106403
10 | 23:38:54 | 03:08:35 | 106404 | 120538
11 | 26:47:14 | 01:55:44 | 120539 | 129207
12 | 28:42:58 | 04:23:07 | 129208 | 148939
13 | 33:05:65 | 01:53:43 | 148940 | 157457
14 | 34:59:33 | 07:54:19 | 157458 | 193026
15 | 42:53:52 | 01:48:04 | 193027 | 201130
16 | 44:41:56 | 02:21:52 | 201131 | 211757
17 | 47:03:33 | 03:56:10 | 211758 | 229467
18 | 50:59:43 | 06:24:68 | 229468 | 258335

AccurateRip Summary
Disc not found in AccurateRip DB.

All Tracks
Statistics
Read error : 0
Skipped (treated as error) : 0
Edge jitter error (maybe fixed) : 0
Atom jitter error (maybe fixed) : 10
Drift error (maybe fixed) : 0
Dropped bytes error (maybe fixed) : 0
Duplicated bytes error (maybe fixed) : 0

Track 01
Filename : /Users/kgpat/Desktop/Convert/KingsmanFLAC/01 Henry Jackman & Matthew Margeson - Manners Maketh Man.flac
Pre-gap length : 00:02:00

CRC32 hash : 846326D7
CRC32 hash (skip zero) : B86B68A1
AccurateRip v1 signature : BFF85462
AccurateRip v2 signature : 1408CF66
->Track not present in AccurateRip database.
Statistics
Read error : 0
Skipped (treated as error) : 0
Edge jitter error (maybe fixed) : 0
Atom jitter error (maybe fixed) : 0
Drift error (maybe fixed) : 0
Dropped bytes error (maybe fixed) : 0
Duplicated bytes error (maybe fixed) : 0

Track 02
Filename : /Users/kgpat/Desktop/Convert/KingsmanFLAC/02 Henry Jackman & Matthew Margeson - The Medallion.flac

CRC32 hash : E0C4D883
CRC32 hash (skip zero) : C057DDEA
AccurateRip v1 signature : 9EEF4FB2
AccurateRip v2 signature : 061835D1
->Track not present in AccurateRip database.
Statistics
Read error : 0
Skipped (treated as error) : 0
Edge jitter error (maybe fixed) : 0
Atom jitter error (maybe fixed) : 0
Drift error (maybe fixed) : 0
Dropped bytes error (maybe fixed) : 0
Duplicated bytes error (maybe fixed) : 0

Track 03
Filename : /Users/kgpat/Desktop/Convert/KingsmanFLAC/03 Henry Jackman & Matthew Margeson - Valentine.flac

CRC32 hash : 36B5819C
CRC32 hash (skip zero) : C9ACC329
AccurateRip v1 signature : CA2470D2
AccurateRip v2 signature : 747203F9
->Track not present in AccurateRip database.
Statistics
Read error : 0
Skipped (treated as error) : 0
Edge jitter error (maybe fixed) : 0
Atom jitter error (maybe fixed) : 0
Drift error (maybe fixed) : 0
Dropped bytes error (maybe fixed) : 0
Duplicated bytes error (maybe fixed) : 0

Track 04
Filename : /Users/kgpat/Desktop/Convert/KingsmanFLAC/04 Henry Jackman & Matthew Margeson - To Become A Kingsman.flac

CRC32 hash : 1D290199
CRC32 hash (skip zero) : C2B80AE7
AccurateRip v1 signature : B303A63A
AccurateRip v2 signature : 5ECE231D
->Track not present in AccurateRip database.
Statistics
Read error : 0
Skipped (treated as error) : 0
Edge jitter error (maybe fixed) : 0
Atom jitter error (maybe fixed) : 0
Drift error (maybe fixed) : 0
Dropped bytes error (maybe fixed) : 0
Duplicated bytes error (maybe fixed) : 0

Track 05
Filename : /Users/kgpat/Desktop/Convert/KingsmanFLAC/05 Henry Jackman & Matthew Margeson - Pick A Puppy.flac

CRC32 hash : 641F7194
CRC32 hash (skip zero) : ACCACB10
AccurateRip v1 signature : BE5534D3
AccurateRip v2 signature : 681C1F95
->Track not present in AccurateRip database.
Statistics
Read error : 0
Skipped (treated as error) : 0
Edge jitter error (maybe fixed) : 0
Atom jitter error (maybe fixed) : 0
Drift error (maybe fixed) : 0
Dropped bytes error (maybe fixed) : 0
Duplicated bytes error (maybe fixed) : 0

Track 06
Filename : /Users/kgpat/Desktop/Convert/KingsmanFLAC/06 Henry Jackman & Matthew Margeson - Drinks With Valentine.flac

CRC32 hash : 31A4ED89
CRC32 hash (skip zero) : F1DC3DBF
AccurateRip v1 signature : C708B4CD
AccurateRip v2 signature : A01CE75A
->Track not present in AccurateRip database.
Statistics
Read error : 0
Skipped (treated as error) : 0
Edge jitter error (maybe fixed) : 0
Atom jitter error (maybe fixed) : 0
Drift error (maybe fixed) : 0
Dropped bytes error (maybe fixed) : 0
Duplicated bytes error (maybe fixed) : 0

Track 07
Filename : /Users/kgpat/Desktop/Convert/KingsmanFLAC/07 Henry Jackman & Matthew Margeson - Skydiving.flac

CRC32 hash : 8EFD0FFD
CRC32 hash (skip zero) : 6A545335
AccurateRip v1 signature : 809D539E
AccurateRip v2 signature : 9542054C
->Track not present in AccurateRip database.
Statistics
Read error : 0
Skipped (treated as error) : 0
Edge jitter error (maybe fixed) : 0
Atom jitter error (maybe fixed) : 7
Drift error (maybe fixed) : 0
Dropped bytes error (maybe fixed) : 0
Duplicated bytes error (maybe fixed) : 0

Track 08
Filename : /Users/kgpat/Desktop/Convert/KingsmanFLAC/08 Henry Jackman & Matthew Margeson - Shame We Had To Grow Up.flac

CRC32 hash : A65450BF
CRC32 hash (skip zero) : 6B219424
AccurateRip v1 signature : 15738742
AccurateRip v2 signature : FE30C715
->Track not present in AccurateRip database.
Statistics
Read error : 0
Skipped (treated as error) : 0
Edge jitter error (maybe fixed) : 0
Atom jitter error (maybe fixed) : 0
Drift error (maybe fixed) : 0
Dropped bytes error (maybe fixed) : 0
Duplicated bytes error (maybe fixed) : 0

Track 09
Filename : /Users/kgpat/Desktop/Convert/KingsmanFLAC/09 Henry Jackman & Matthew Margeson - Kentucky Christians* [*Album Exclusive Track].flac

CRC32 hash : B1F0A261
CRC32 hash (skip zero) : 32932D8E
AccurateRip v1 signature : 1CEB2D68
AccurateRip v2 signature : B73CB1ED
->Track not present in AccurateRip database.
Statistics
Read error : 0
Skipped (treated as error) : 0
Edge jitter error (maybe fixed) : 0
Atom jitter error (maybe fixed) : 0
Drift error (maybe fixed) : 0
Dropped bytes error (maybe fixed) : 0
Duplicated bytes error (maybe fixed) : 0

Track 10
Filename : /Users/kgpat/Desktop/Convert/KingsmanFLAC/10 Henry Jackman & Matthew Margeson - Curious Scars And Implants.flac

CRC32 hash : BF6C2824
CRC32 hash (skip zero) : C5727402
AccurateRip v1 signature : 0FC6DC7C
AccurateRip v2 signature : C0B3251B
->Track not present in AccurateRip database.
Statistics
Read error : 0
Skipped (treated as error) : 0
Edge jitter error (maybe fixed) : 0
Atom jitter error (maybe fixed) : 0
Drift error (maybe fixed) : 0
Dropped bytes error (maybe fixed) : 0
Duplicated bytes error (maybe fixed) : 0

Track 11
Filename : /Users/kgpat/Desktop/Convert/KingsmanFLAC/11 Henry Jackman & Matthew Margeson - Toast To A Kingsman.flac

CRC32 hash : 2390C6D3
CRC32 hash (skip zero) : F5B5BEF6
AccurateRip v1 signature : 6579858F
AccurateRip v2 signature : 363036D6
->Track not present in AccurateRip database.
Statistics
Read error : 0
Skipped (treated as error) : 0
Edge jitter error (maybe fixed) : 0
Atom jitter error (maybe fixed) : 0
Drift error (maybe fixed) : 0
Dropped bytes error (maybe fixed) : 0
Duplicated bytes error (maybe fixed) : 0

Track 12
Filename : /Users/kgpat/Desktop/Convert/KingsmanFLAC/12 Henry Jackman & Matthew Margeson - An 1815 Napoleonic Brandy.flac

CRC32 hash : C0333572
CRC32 hash (skip zero) : BD0262B6
AccurateRip v1 signature : DE5954DA
AccurateRip v2 signature : 93D9319C
->Track not present in AccurateRip database.
Statistics
Read error : 0
Skipped (treated as error) : 0
Edge jitter error (maybe fixed) : 0
Atom jitter error (maybe fixed) : 0
Drift error (maybe fixed) : 0
Dropped bytes error (maybe fixed) : 0
Duplicated bytes error (maybe fixed) : 0

Track 13
Filename : /Users/kgpat/Desktop/Convert/KingsmanFLAC/13 Henry Jackman & Matthew Margeson - Eat, Drink, And Paaaaarty.flac

CRC32 hash : 358DD54F
CRC32 hash (skip zero) : 65B30BB0
AccurateRip v1 signature : 6845B204
AccurateRip v2 signature : F9D50B5C
->Track not present in AccurateRip database.
Statistics
Read error : 0
Skipped (treated as error) : 0
Edge jitter error (maybe fixed) : 0
Atom jitter error (maybe fixed) : 0
Drift error (maybe fixed) : 0
Dropped bytes error (maybe fixed) : 0
Duplicated bytes error (maybe fixed) : 0

Track 14
Filename : /Users/kgpat/Desktop/Convert/KingsmanFLAC/14 Henry Jackman & Matthew Margeson - Calculated Infiltration.flac

CRC32 hash : 6258C489
CRC32 hash (skip zero) : FCF80E99
AccurateRip v1 signature : E51D86D1
AccurateRip v2 signature : E1AFB053
->Track not present in AccurateRip database.
Statistics
Read error : 0
Skipped (treated as error) : 0
Edge jitter error (maybe fixed) : 0
Atom jitter error (maybe fixed) : 3
Drift error (maybe fixed) : 0
Dropped bytes error (maybe fixed) : 0
Duplicated bytes error (maybe fixed) : 0

Track 15
Filename : /Users/kgpat/Desktop/Convert/KingsmanFLAC/15 Henry Jackman & Matthew Margeson - Out Of Options* [*Album Exclusive Track].flac

CRC32 hash : 41276350
CRC32 hash (skip zero) : C6E25DEF
AccurateRip v1 signature : 25802C1B
AccurateRip v2 signature : 2B855D75
->Track not present in AccurateRip database.
Statistics
Read error : 0
Skipped (treated as error) : 0
Edge jitter error (maybe fixed) : 0
Atom jitter error (maybe fixed) : 0
Drift error (maybe fixed) : 0
Dropped bytes error (maybe fixed) : 0
Duplicated bytes error (maybe fixed) : 0

Track 16
Filename : /Users/kgpat/Desktop/Convert/KingsmanFLAC/16 Henry Jackman & Matthew Margeson - Hand On The Machine.flac

CRC32 hash : 40CF78A4
CRC32 hash (skip zero) : 155CD657
AccurateRip v1 signature : CAAD277B
AccurateRip v2 signature : 691A13D8
->Track not present in AccurateRip database.
Statistics
Read error : 0
Skipped (treated as error) : 0
Edge jitter error (maybe fixed) : 0
Atom jitter error (maybe fixed) : 0
Drift error (maybe fixed) : 0
Dropped bytes error (maybe fixed) : 0
Duplicated bytes error (maybe fixed) : 0

Track 17
Filename : /Users/kgpat/Desktop/Convert/KingsmanFLAC/17 Henry Jackman & Matthew Margeson - Finale.flac

CRC32 hash : 7EC04386
CRC32 hash (skip zero) : BA00BFBE
AccurateRip v1 signature : D5990986
AccurateRip v2 signature : A2FB3E16
->Track not present in AccurateRip database.
Statistics
Read error : 0
Skipped (treated as error) : 0
Edge jitter error (maybe fixed) : 0
Atom jitter error (maybe fixed) : 0
Drift error (maybe fixed) : 0
Dropped bytes error (maybe fixed) : 0
Duplicated bytes error (maybe fixed) : 0

Track 18
Filename : /Users/kgpat/Desktop/Convert/KingsmanFLAC/18 Henry Jackman & Matthew Margeson - Original Valentine Ideas* (Demo Suite) [*Album Exclusive Track].flac

CRC32 hash : 80DD3F8F
CRC32 hash (skip zero) : 987A1B30
AccurateRip v1 signature : 8AFDE777
AccurateRip v2 signature : F1CCC084
->Track not present in AccurateRip database.
Statistics
Read error : 0
Skipped (treated as error) : 0
Edge jitter error (maybe fixed) : 0
Atom jitter error (maybe fixed) : 0
Drift error (maybe fixed) : 0
Dropped bytes error (maybe fixed) : 0
Duplicated bytes error (maybe fixed) : 0

No errors occurred

End of status report
TITLE "Kingsman: The Secret Service (La-La Land)" 
PERFORMER "Henry Jackman & Matthew Margeson"
REM GENRE "Soundtrack"
REM DATE "2015"
REM DISCNUMBER 1
REM TOTALDISCS 1
REM DISCID F60D7412
FILE "01 Henry Jackman & Matthew Margeson - Manners Maketh Man.flac" WAVE
TRACK 01 AUDIO
TITLE "Manners Maketh Man"
PERFORMER "Henry Jackman & Matthew Margeson"
SONGWRITER "Henry Jackman & Matthew Margeson"
INDEX 01 00:00:00
FILE "02 Henry Jackman & Matthew Margeson - The Medallion.flac" WAVE
TRACK 02 AUDIO
TITLE "The Medallion"
PERFORMER "Henry Jackman & Matthew Margeson"
SONGWRITER "Henry Jackman & Matthew Margeson"
INDEX 01 00:00:00
FILE "03 Henry Jackman & Matthew Margeson - Valentine.flac" WAVE
TRACK 03 AUDIO
TITLE "Valentine"
PERFORMER "Henry Jackman & Matthew Margeson"
SONGWRITER "Henry Jackman & Matthew Margeson"
INDEX 01 00:00:00
FILE "04 Henry Jackman & Matthew Margeson - To Become A Kingsman.flac" WAVE
TRACK 04 AUDIO
TITLE "To Become A Kingsman"
PERFORMER "Henry Jackman & Matthew Margeson"
SONGWRITER "Henry Jackman & Matthew Margeson"
INDEX 01 00:00:00
FILE "05 Henry Jackman & Matthew Margeson - Pick A Puppy.flac" WAVE
TRACK 05 AUDIO
TITLE "Pick A Puppy"
PERFORMER "Henry Jackman & Matthew Margeson"
SONGWRITER "Henry Jackman & Matthew Margeson"
INDEX 01 00:00:00
FILE "06 Henry Jackman & Matthew Margeson - Drinks With Valentine.flac" WAVE
TRACK 06 AUDIO
TITLE "Drinks With Valentine"
PERFORMER "Henry Jackman & Matthew Margeson"
SONGWRITER "Henry Jackman & Matthew Margeson"
INDEX 01 00:00:00
FILE "07 Henry Jackman & Matthew Margeson - Skydiving.flac" WAVE
TRACK 07 AUDIO
TITLE "Skydiving"
PERFORMER "Henry Jackman & Matthew Margeson"
SONGWRITER "Henry Jackman & Matthew Margeson"
INDEX 01 00:00:00
FILE "08 Henry Jackman & Matthew Margeson - Shame We Had To Grow Up.flac" WAVE
TRACK 08 AUDIO
TITLE "Shame We Had To Grow Up"
PERFORMER "Henry Jackman & Matthew Margeson"
SONGWRITER "Henry Jackman & Matthew Margeson"
INDEX 01 00:00:00
FILE "09 Henry Jackman & Matthew Margeson - Kentucky Christians* [*Album Exclusive Track].flac" WAVE
TRACK 09 AUDIO
TITLE "Kentucky Christians* [*Album Exclusive Track]"
PERFORMER "Henry Jackman & Matthew Margeson"
SONGWRITER "Henry Jackman & Matthew Margeson"
INDEX 01 00:00:00
FILE "10 Henry Jackman & Matthew Margeson - Curious Scars And Implants.flac" WAVE
TRACK 10 AUDIO
TITLE "Curious Scars And Implants"
PERFORMER "Henry Jackman & Matthew Margeson"
SONGWRITER "Henry Jackman & Matthew Margeson"
INDEX 01 00:00:00
FILE "11 Henry Jackman & Matthew Margeson - Toast To A Kingsman.flac" WAVE
TRACK 11 AUDIO
TITLE "Toast To A Kingsman"
PERFORMER "Henry Jackman & Matthew Margeson"
SONGWRITER "Henry Jackman & Matthew Margeson"
INDEX 01 00:00:00
FILE "12 Henry Jackman & Matthew Margeson - An 1815 Napoleonic Brandy.flac" WAVE
TRACK 12 AUDIO
TITLE "An 1815 Napoleonic Brandy"
PERFORMER "Henry Jackman & Matthew Margeson"
SONGWRITER "Henry Jackman & Matthew Margeson"
INDEX 01 00:00:00
FILE "13 Henry Jackman & Matthew Margeson - Eat, Drink, And Paaaaarty.flac" WAVE
TRACK 13 AUDIO
TITLE "Eat, Drink, And Paaaaarty"
PERFORMER "Henry Jackman & Matthew Margeson"
SONGWRITER "Henry Jackman & Matthew Margeson"
INDEX 01 00:00:00
FILE "14 Henry Jackman & Matthew Margeson - Calculated Infiltration.flac" WAVE
TRACK 14 AUDIO
TITLE "Calculated Infiltration"
PERFORMER "Henry Jackman & Matthew Margeson"
SONGWRITER "Henry Jackman & Matthew Margeson"
INDEX 01 00:00:00
FILE "15 Henry Jackman & Matthew Margeson - Out Of Options* [*Album Exclusive Track].flac" WAVE
TRACK 15 AUDIO
TITLE "Out Of Options* [*Album Exclusive Track]"
PERFORMER "Henry Jackman & Matthew Margeson"
SONGWRITER "Henry Jackman & Matthew Margeson"
INDEX 01 00:00:00
FILE "16 Henry Jackman & Matthew Margeson - Hand On The Machine.flac" WAVE
TRACK 16 AUDIO
TITLE "Hand On The Machine"
PERFORMER "Henry Jackman & Matthew Margeson"
SONGWRITER "Henry Jackman & Matthew Margeson"
INDEX 01 00:00:00
FILE "17 Henry Jackman & Matthew Margeson - Finale.flac" WAVE
TRACK 17 AUDIO
TITLE "Finale"
PERFORMER "Henry Jackman & Matthew Margeson"
SONGWRITER "Henry Jackman & Matthew Margeson"
INDEX 01 00:00:00
FILE "18 Henry Jackman & Matthew Margeson - Original Valentine Ideas* (Demo Suite) [*Album Exclusive Track].flac" WAVE
TRACK 18 AUDIO
TITLE "Original Valentine Ideas* (Demo Suite) [*Album Exclusive Track]"
PERFORMER "Henry Jackman & Matthew Margeson"
SONGWRITER "Henry Jackman & Matthew Margeson"
INDEX 01 00:00:00
info [Профиль]  [ЛС] 

Кasper

Пол: Пол:Муж

Стаж: 2 года 6 месяцев

Сообщений: 67

Россия
Рейтинг

post 22-Фев-2015 18:01 (спустя 9 минут) [-]1[+]

[Цитировать] 

Как замечу в качестве, выложу еще фильм. Советую зайти на него в кинотеатр, фильм БОМБА Улыбаюсь
info [Профиль]  [ЛС] 

NYMEZIDE

Стаж: 5 лет 4 месяца

Сообщений: 25

Рейтинг

post 08-Мар-2015 16:21 (спустя 13 дней) [-]0[+]

[Цитировать] 

Странно, что нет трека Dire Straits – Money For Nothing

не полный состав? будет еще Deluxe версия?
info [Профиль]  [ЛС] 

3den

Пол: Пол:Муж

Стаж: 7 лет 4 месяца

Сообщений: 225

Россия
Рейтинг

post 09-Мар-2015 12:45 (спустя 20 часов) [-]0[+]

[Цитировать] 

NYMEZIDE
Не путайте Score(музыка, написанная специально для фильма) и OST(использованная в фильме музыка).
info [Профиль]  [ЛС] 
Показать сообщения:    
Ответить на тему

Текущее время: 05-Дек 04:34

Часовой пояс: GMT + 4



Вы не можете начинать темы
Вы не можете отвечать на сообщения
Вы не можете редактировать свои сообщения
Вы не можете удалять свои сообщения
Вы не можете голосовать в опросах
Вы не можете прикреплять файлы к сообщениям
Вы не можете скачивать файлы