Ошибка

Последний единорог / The Last Unicorn (Джулз Басс, Артур Ранкин мл.) [1982 г., мультфильм, фэнтези, семейный, BDRemux 1080p]

Ответить на тему
 
Автор Сообщение

NovA_JKE

Пол: Пол:Жен

Стаж: 6 лет 9 месяцев

Сообщений: 413

Антарктида
Рейтинг

post 19-Фев-2015 16:52 1[+]

[Цитировать] 

pic="http://savepic.su/5060415.png"

Последний единорог
The Last Unicorn

Год выпуска: 1982
Страна: США, Великобритания, Япония, Германия
Жанр: мультфильм, фэнтези, семейный
Продолжительность: 01:33:03
Перевод: Профессиональный (полное дублирование)
Режиссер: Джулз Басс, Артур Ранкин мл.
В ролях: Алан Аркин, Джефф Бриджес, Миа Фэрроу, Тэмми Граймз, Роберт Клейн, Анджела Лэнсбери, Кристофер Ли, Кинен Уинн, Пол Фрис, Рене Обержонуа
Описание: В далекой волшебной стране в сиреневой роще жил юный прекрасный единорог, знающий секреты магии. Однажды он узнал, что все его сородичи исчезли с лица земли, и он может стать последним единорогом на свете.
Дополнительная информация:

Качество: BDRemux 1080p [первое издание]
Формат: mkv
Видео: AVC; 8 bit; 1920x1080; 23,976 fps; ~34997 kbps
Аудио:
  1. RUS: AC3 2.0, 48 kHz, 192 kbps - Профессиональный (дублированный)
  2. RUS: AC3 2.0, 48 kHz, 224 kbps - Профессиональный (многоголосый закадровый)
  3. RUS: AC3 2.0, 48 kHz, 192 kbps - Авторский (одноголосый закадровый) | Юрий Сербин
  4. RUS: AC3 2.0, 48 kHz, 192 kbps - Авторский (одноголосый закадровый) | Сергей Визгунов
  5. RUS: AC3 2.0, 48 kHz, 192 kbps - Авторский (одноголосый закадровый) | Юрий Живов
  6. RUS: AC3 2.0, 48 kHz, 192 kbps - Авторский (одноголосый закадровый) | Максим Ошурков
  7. ENG: DTS-HD MA 5.1, 48 kHz, 3720 kbps - Оригинал
  8. ENG: AC3 2.0, 48 kHz, 192 kbps - Комментарии (Английский язык)
Субтитры:
  1. Русские полные (софт, SRT)
  2. Английские полные (Софт, SRT)

Код:

Общее
Уникальный идентификатор                 : 204132569026198077702090524790200024394 (0x999280B2FE59BADEB819E6847B953D4A)
Полное имя                               : Q:\VIDEO_TS\BD\The.Last.Unicorn.1982.BDRemux.1080p.mkv
Формат                                   : Matroska
Версия формата                           : Version 4 / Version 2
Размер файла                             : 26,0 Гбайт
Продолжительность                        : 1 ч. 33 м.
Режим общего битрейта                    : Переменный
Общий поток                              : 40,1 Мбит/сек
Название фильма                          : The Last Unicorn / Последний Единорог (1982)
Дата кодирования                         : UTC 2015-02-15 18:52:27
Программа кодирования                    : mkvmerge v7.4.0 ('Circles') 64bit built on Dec 12 2014 12:19:56
Библиотека кодирования                   : libebml v1.3.0 + libmatroska v1.4.1
DURATION                                 : 01:32:46.464000000
NUMBER_OF_FRAMES                         : 173952
NUMBER_OF_BYTES                          : 133595136
_STATISTICS_WRITING_APP                  : mkvmerge v7.4.0 ('Circles') 64bit built on Dec 12 2014 12:19:56
_STATISTICS_WRITING_DATE_UTC             : 2015-02-15 18:52:27
_STATISTICS_TAGS                         : BPS DURATION NUMBER_OF_FRAMES NUMBER_OF_BYTES

Видео
Идентификатор                            : 1
Формат                                   : AVC
Формат/Информация                        : Advanced Video Codec
Профиль формата                          : High@L4.1
Параметр CABAC формата                   : Да
Параметр ReFrames формата                : 4 кадра
Идентификатор кодека                     : V_MPEG4/ISO/AVC
Продолжительность                        : 1 ч. 33 м.
Вид битрейта                             : Переменный
Максимальный битрейт                     : 37,0 Мбит/сек
Ширина                                   : 1920 пикселей
Высота                                   : 1080 пикселей
Соотношение сторон                       : 16:9
Режим частоты кадров                     : Постоянный
Частота кадров                           : 23,976 кадра/сек
Цветовое пространство                    : YUV
Субдискретизация насыщенности            : 4:2:0
Битовая глубина                          : 8 бит
Тип развёртки                            : Прогрессивная
Default                                  : Да
Forced                                   : Нет

Аудио #1
Идентификатор                            : 2
Формат                                   : AC-3
Формат/Информация                        : Audio Coding 3
Расширение режима                        : CM (complete main)
Параметр Endianness формата              : Big
Идентификатор кодека                     : A_AC3
Продолжительность                        : 1 ч. 33 м.
Вид битрейта                             : Постоянный
Битрейт                                  : 192 Кбит/сек
Каналы                                   : 2 канала
Расположение каналов                     : Front: L R
Частота                                  : 48,0 КГц
Битовая глубина                          : 16 бит
Метод сжатия                             : С потерями
Размер потока                            : 128 Мбайт (0%)
Заголовок                                : Профессиональный (дублированный) - студия "Ракурс"
Язык                                     : Russian
Default                                  : Да
Forced                                   : Нет

Аудио #2
Идентификатор                            : 3
Формат                                   : AC-3
Формат/Информация                        : Audio Coding 3
Профиль формата                          : Dolby Digital
Расширение режима                        : CM (complete main)
Параметр Endianness формата              : Big
Идентификатор кодека                     : A_AC3
Продолжительность                        : 1 ч. 33 м.
Вид битрейта                             : Постоянный
Битрейт                                  : 224 Кбит/сек
Каналы                                   : 2 канала
Расположение каналов                     : Front: L R
Частота                                  : 48,0 КГц
Битовая глубина                          : 16 бит
Метод сжатия                             : С потерями
Размер потока                            : 149 Мбайт (1%)
Заголовок                                : Профессиональный (многоголосый, закадровый) - Твистер
Язык                                     : Russian
Default                                  : Нет
Forced                                   : Нет

Аудио #3
Идентификатор                            : 4
Формат                                   : AC-3
Формат/Информация                        : Audio Coding 3
Расширение режима                        : CM (complete main)
Параметр Endianness формата              : Big
Идентификатор кодека                     : A_AC3
Продолжительность                        : 1 ч. 33 м.
Вид битрейта                             : Постоянный
Битрейт                                  : 192 Кбит/сек
Каналы                                   : 2 канала
Расположение каналов                     : Front: L R
Частота                                  : 48,0 КГц
Битовая глубина                          : 16 бит
Метод сжатия                             : С потерями
Размер потока                            : 128 Мбайт (0%)
Заголовок                                : Авторский (одноголосый закадровый) - Юрий Сербин
Язык                                     : Russian
Default                                  : Нет
Forced                                   : Нет

Аудио #4
Идентификатор                            : 5
Формат                                   : AC-3
Формат/Информация                        : Audio Coding 3
Расширение режима                        : CM (complete main)
Параметр Endianness формата              : Big
Идентификатор кодека                     : A_AC3
Продолжительность                        : 1 ч. 33 м.
Вид битрейта                             : Постоянный
Битрейт                                  : 192 Кбит/сек
Каналы                                   : 2 канала
Расположение каналов                     : Front: L R
Частота                                  : 48,0 КГц
Битовая глубина                          : 16 бит
Метод сжатия                             : С потерями
Размер потока                            : 128 Мбайт (0%)
Заголовок                                : Авторский (одноголосый закадровый) - Сергей Визгунов
Язык                                     : Russian
Default                                  : Нет
Forced                                   : Нет

Аудио #5
Идентификатор                            : 6
Формат                                   : AC-3
Формат/Информация                        : Audio Coding 3
Расширение режима                        : CM (complete main)
Параметр Endianness формата              : Big
Идентификатор кодека                     : A_AC3
Продолжительность                        : 1 ч. 33 м.
Вид битрейта                             : Постоянный
Битрейт                                  : 192 Кбит/сек
Каналы                                   : 2 канала
Расположение каналов                     : Front: L R
Частота                                  : 48,0 КГц
Битовая глубина                          : 16 бит
Метод сжатия                             : С потерями
Размер потока                            : 128 Мбайт (0%)
Заголовок                                : Авторский (одноголосый закадровый) - Юрий Живов
Язык                                     : Russian
Default                                  : Нет
Forced                                   : Нет

Аудио #6
Идентификатор                            : 7
Формат                                   : AC-3
Формат/Информация                        : Audio Coding 3
Расширение режима                        : CM (complete main)
Параметр Endianness формата              : Big
Идентификатор кодека                     : A_AC3
Продолжительность                        : 1 ч. 33 м.
Вид битрейта                             : Постоянный
Битрейт                                  : 192 Кбит/сек
Каналы                                   : 1 канал
Расположение каналов                     : Front: C
Частота                                  : 48,0 КГц
Битовая глубина                          : 16 бит
Метод сжатия                             : С потерями
Размер потока                            : 128 Мбайт (0%)
Заголовок                                : Авторский (одноголосый закадровый) - Максим Ошурков
Язык                                     : Russian
Default                                  : Нет
Forced                                   : Нет

Аудио #7
Идентификатор                            : 8
Формат                                   : DTS
Формат/Информация                        : Digital Theater Systems
Профиль формата                          : MA / Core
Режим                                    : 16
Параметр Endianness формата              : Big
Идентификатор кодека                     : A_DTS
Продолжительность                        : 1 ч. 33 м.
Вид битрейта                             : Переменный
Битрейт                                  : Неизвестно / 1509 Кбит/сек
Каналы                                   : 6 каналов
Расположение каналов                     : Front: L C R, Side: L R, LFE
Частота                                  : 48,0 КГц
Битовая глубина                          : 24 бит
Метод сжатия                             : Без потерь / Lossy
Заголовок                                : Английский оригинал
Язык                                     : English
Default                                  : Нет
Forced                                   : Нет

Аудио #8
Идентификатор                            : 9
Формат                                   : AC-3
Формат/Информация                        : Audio Coding 3
Расширение режима                        : CM (complete main)
Параметр Endianness формата              : Big
Идентификатор кодека                     : A_AC3
Продолжительность                        : 1 ч. 33 м.
Вид битрейта                             : Постоянный
Битрейт                                  : 192 Кбит/сек
Каналы                                   : 2 канала
Расположение каналов                     : Front: L R
Частота                                  : 48,0 КГц
Битовая глубина                          : 16 бит
Метод сжатия                             : С потерями
Размер потока                            : 128 Мбайт (0%)
Заголовок                                : Английские комментарии
Язык                                     : English
Default                                  : Нет
Forced                                   : Нет

Текст #1
Идентификатор                            : 10
Формат                                   : UTF-8
Идентификатор кодека                     : S_TEXT/UTF8
Идентификатор кодека/Информация          : UTF-8 Plain Text
Заголовок                                : Русские
Язык                                     : Russian
Default                                  : Нет
Forced                                   : Нет

Текст #2
Идентификатор                            : 11
Формат                                   : UTF-8
Идентификатор кодека                     : S_TEXT/UTF8
Идентификатор кодека/Информация          : UTF-8 Plain Text
Заголовок                                : Английские
Язык                                     : English
Default                                  : Нет
Forced                                   : Нет
info [Профиль]  [ЛС] 

NovA_JKE

Пол: Пол:Жен

Стаж: 6 лет 9 месяцев

Сообщений: 413

Антарктида
Рейтинг

post 19-Фев-2015 16:53 (спустя 1 минута) [-]0[+]

[Цитировать] 

на следующей неделе, мб, будет bdrip 720p.
info [Профиль]  [ЛС] 

killer47

Пол: Пол:Муж

Стаж: 7 лет 8 месяцев

Сообщений: 290

Азербайджан
Рейтинг

post 20-Фев-2015 06:23 (спустя 13 часов) [-]0[+]

[Цитировать] 

Совсем детский он? А то соскучился по рисованным мультикам я что-то.

_________________
Smoking ganja for medical purposes only.
info [Профиль]  [ЛС] 

waka

Стаж: 7 лет 7 месяцев

Сообщений: 41

Рейтинг

post 20-Фев-2015 06:44 (спустя 21 минута) [-]5[+]

[Цитировать] 

вообще не детский
у ребёнка после такой вещи будет продолжительная депрессия
мировая классика уровня галактического экспресса
info [Профиль]  [ЛС] 

Big23

Стаж: 6 лет 4 месяца

Сообщений: 992

Зимбабве
Рейтинг

post 20-Фев-2015 18:14 (спустя 11 часов) [-]0[+]

[Цитировать] 

Печальная вещичка, но хоть нарисовано оч. качественно.

_________________
везде требуются космонавты
info [Профиль]  [ЛС] 

Overlord123

Стаж: 7 лет 3 месяца

Сообщений: 28

Рейтинг

post 20-Фев-2015 20:38 (спустя 2 часа 23 минуты) [-]0[+]

[Цитировать] 

А что слышно про ремастер? Снег этот напрягает.
info [Профиль]  [ЛС] 

killer47

Пол: Пол:Муж

Стаж: 7 лет 8 месяцев

Сообщений: 290

Азербайджан
Рейтинг

post 21-Фев-2015 05:01 (спустя 8 часов) [-]0[+]

[Цитировать] 

waka писал(а):

вообще не детский
у ребёнка после такой вещи будет продолжительная депрессия
мировая классика уровня галактического экспресса
Спасибо, завтра обязательно посмотрю. И галактический экспресс тоже. Даже не слышал о них никогда.
Я и Миядзаки не смотрел еще, каюсь. Как-то не вышло, мимо меня прошло.

_________________
Smoking ganja for medical purposes only.
info [Профиль]  [ЛС] 
Показать сообщения:    
Ответить на тему

Текущее время: 05-Дек 16:37

Часовой пояс: GMT + 4



Вы не можете начинать темы
Вы не можете отвечать на сообщения
Вы не можете редактировать свои сообщения
Вы не можете удалять свои сообщения
Вы не можете голосовать в опросах
Вы не можете прикреплять файлы к сообщениям
Вы не можете скачивать файлы