Ошибка

До окончания фрилича осталось:


Одержимость / Whiplash (Дэмьен Шазелл) [2014 г., Драма, Музыкальный, BDRemux 1080p]

Ответить на тему
 
Автор Сообщение

imecstasy

Пол: Пол:Муж

Стаж: 1 год 11 месяцев

Сообщений: 11

Россия
Рейтинг

post 13-Фев-2015 01:25 1[+]

[Цитировать] 

Одержимость / Whiplash

Год выпуска: 2014
Страна: США / Bold Films, Blumhouse Productions, Right of Way Films
Жанр: Драма, Музыкальный
Продолжительность: 01:46:45
Перевод: Профессиональный (многоголосый, закадровый) [лицензия]
Субтитры: Вшитые отключаемые
Язык субтитров: Русский, Английский

Режиссер: Дэмьен Шазелл

В ролях: Майлз Теллер, Дж.К. Симмонс, Пол Райзер, Мелисса Беноист, Остин Стоуэлл, Нат Лэнг, Крис Малки, Дэймон Гаптон, Макс Кэш, Сюанн Споук

Описание: Эндрю мечтает стать великим. Казалось бы, вот-вот его мечта осуществится. Юношу замечает настоящий гений, дирижер лучшего в стране оркестра. Желание Эндрю добиться успеха быстро становится одержимостью, а безжалостный наставник продолжает подталкивать его все дальше и дальше — за пределы человеческих возможностей. Кто выйдет победителем из этой схватки?
Top IMDB 250: #37
Top Кинопоиск 250: #51


Доп. информация:
Гран-при в категории «Драматический фильм» и Приз зрительских симпатий в категории «Драматический фильм» на кинофестивале «Сандэнс», 2014 г. Фильм был высоко оценен критиками. На сайте Rotten Tomatoes фильм имеет рейтинг 96% на основе 186 рецензий со средним баллом 8,6 из 10.

Номинации (5):
Лучший фильм
Лучшая мужская роль второго плана (Дж.К. Симмонс)
Лучший адаптированный сценарий
Лучший звук
Лучший монтаж

Дата мировой премьеры: 16 января 2014
Дата российской премьеры: 23 октября 2014, «Премиум Фильм»
Дата выхода DVD релиза: 26 февраля 2015, «CP Дистрибуция»

Качество: BDRemux 1080p
Формат: MKV
Видео кодек: H.264
Аудио кодек: AC3
Видео: MPEG-4 AVC/H.264, ~24,4 Мбит/сек, 1920x1080, 23,976 fps
Аудио 1: Русский, AC3 5.1, 384 kbps, 48 kHz (iTunes Russia)
Аудио 2: Английский, DTS 5.1, 1509 kbps, 48 kHz (Original)
Общее
Полное имя :\Одержимость_Whiplash.2014.BDRemux.1080p.mkv
Формат : Matroska
Версия формата : Version 4 / Version 2
Размер файла : 20,0 Гбайт
Продолжительность : 1 ч. 46 м.
Режим общего битрейта : Переменный
Общий поток : 26,8 Мбит/сек
Название фильма : Одержимость_Whiplash.2014.BDRemux.1080p
Дата кодирования : UTC 2010-02-22 21:41:31
Программа кодирования : mkvmerge v5.8.0 ('No Sleep / Pillow') built on Nov 13 2012 19:43:22
Библиотека кодирования : libebml v1.3.0 + libmatroska v1.4.0

Видео
Идентификатор : 1
Формат : AVC
Формат/Информация : Advanced Video Codec
Профиль формата : High@L4.1
Параметр CABAC формата : Да
Параметр ReFrames формата : 2 кадра
Идентификатор кодека : V_MPEG4/ISO/AVC
Продолжительность : 1 ч. 46 м.
Вид битрейта : Переменный
Битрейт : 24,4 Мбит/сек
Ширина : 1920 пикселей
Высота : 1080 пикселей
Соотношение сторон : 16:9
Режим частоты кадров : Постоянный
Частота кадров : 23,976 кадра/сек
Цветовое пространство : YUV
Субдискретизация насыщенности : 4:2:0
Битовая глубина : 8 бит
Тип развёртки : Прогрессивная
Бит/(Пиксели*Кадры) : 0.490
Размер потока : 18,2 Гбайт (91%)
Заголовок : Одержимость_Whiplash.2014.BDRemux.1080p
Язык : English
Default : Нет
Forced : Нет

Аудио #1
Идентификатор : 2
Формат : AC-3
Формат/Информация : Audio Coding 3
Расширение режима : CM (complete main)
Параметр Endianness формата : Big
Идентификатор кодека : A_AC3
Продолжительность : 1 ч. 46 м.
Вид битрейта : Постоянный
Битрейт : 384 Кбит/сек
Каналы : 6 каналов
Расположение каналов : Front: L C R, Side: L R, LFE
Частота : 48,0 КГц
Битовая глубина : 16 бит
Метод сжатия : С потерями
Размер потока : 293 Мбайт (1%)
Заголовок : MVO
Язык : Russian
Default : Да
Forced : Нет

Аудио #2
Идентификатор : 3
Формат : DTS
Формат/Информация : Digital Theater Systems
Режим : 16
Параметр Endianness формата : Big
Идентификатор кодека : A_DTS
Продолжительность : 1 ч. 46 м.
Вид битрейта : Постоянный
Битрейт : 1509 Кбит/сек
Каналы : 6 каналов
Расположение каналов : Front: L C R, Side: L R, LFE
Частота : 48,0 КГц
Битовая глубина : 16 бит
Метод сжатия : С потерями
Размер потока : 1,13 Гбайт (6%)
Заголовок : Surround 5.1
Язык : English
Default : Нет
Forced : Нет

Текст #1
Идентификатор : 4
Формат : UTF-8
Идентификатор кодека : S_TEXT/UTF8
Идентификатор кодека/Информация : UTF-8 Plain Text
Язык : Russian
Default : Нет
Forced : Нет

Текст #2
Идентификатор : 5
Формат : UTF-8
Идентификатор кодека : S_TEXT/UTF8
Идентификатор кодека/Информация : UTF-8 Plain Text
Язык : English
Default : Нет
Forced : Нет

Текст #3
Идентификатор : 6
Формат : UTF-8
Идентификатор кодека : S_TEXT/UTF8
Идентификатор кодека/Информация : UTF-8 Plain Text
Язык : English
Default : Нет
Forced : Нет

Меню
00:00:00.000 : en:Chapter 01
00:06:51.494 : en:Chapter 02
00:14:34.331 : en:Chapter 03
00:24:26.256 : en:Chapter 04
00:30:05.887 : en:Chapter 05
00:35:43.850 : en:Chapter 06
00:43:31.233 : en:Chapter 07
00:46:55.187 : en:Chapter 08
00:53:12.355 : en:Chapter 09
01:02:37.378 : en:Chapter 10
01:10:30.893 : en:Chapter 11
01:14:03.522 : en:Chapter 12
01:17:48.664 : en:Chapter 13
01:23:05.855 : en:Chapter 14
01:25:28.164 : en:Chapter 15
01:31:56.010 : en:Chapter 16
• Фильм был снят, смонтирован и представлен на фестиваль «Сандэнс» за 10 недель.
• Несмотря на свой опыт игры на барабанах, Майлз Теллер брал дополнительные уроки. Три дня в неделю по четыре часа он занимался, чтобы подготовиться к съемкам фильма.
• Фильм был снят за 19 дней.
• Во время съемок сцен интенсивных репетиций режиссер специально не останавливал процесс, чтобы Майлз Теллер барабанил до изнеможения.
• Майлз Теллер, который играет на барабанах с 15 лет, в процессе съемок стер себе руки до волдырей. В результате палочки, которыми он играл, и сама барабанная установка были испачканы его кровью.
• Режиссер и сценарист фильма Дамьен Шазель никак не мог получить финансирование для фильма, поэтому он сделал из него короткометражку, которую представил на кинофестивале «Сандэнс» в 2013 году. Вскоре после успешного выступления на фестивале Шазель нашел необходимые средства.
• Во время съемок сцены, когда Дж. К. Симмонс дает пощечину Майлзу Теллеру, было сделано несколько дублей, в которых Симмонс только изображал, что бьет Теллера, но на самом деле не бил. А во время последнего дубля актеры решили сделать все по-настоящему. В итоге этот дубль и вошел в финальную версию фильма.
• Фильм отчасти основан на личном опыте Дамьена Шазеля. Когда он учился в старшей школе, то играл в оркестре и, по словам Шазеля, боялся своего преподавателя.
• Дэйн ДеХаан отказался от роли Эндрю.
info [Профиль]  [ЛС] 

BZzz

Пол: Пол:Муж

Стаж: 5 лет 1 месяц

Сообщений: 3647

Россия
Рейтинг

post 13-Фев-2015 12:24 (спустя 10 часов) [-]0[+]

[Цитировать] 

imecstasy
 !  BZzz:

Цитата:

2.1 Размер обложки не должен превышать 600*600 пикселей

_________________
info [Профиль]  [ЛС] 

imecstasy

Пол: Пол:Муж

Стаж: 1 год 11 месяцев

Сообщений: 11

Россия
Рейтинг

post 13-Фев-2015 16:53 (спустя 4 часа) [-]-1[+]

[Цитировать] 

BZzz
Все поправил , спасибо!

_________________
info [Профиль]  [ЛС] 

post 05-Фев-2016 22:49 (спустя 11 месяцев 20 дней) [-]0[+]

Топик был перенесен из форума Новинки 2014-2015 (Web-DL, DVD, HD DVD, Blu-ray, HD Rips) в форум Зарубежное кино | HD DVD и Blu-ray

LyaKich
 
Показать сообщения:    
Ответить на тему

Текущее время: 10-Дек 05:12

Часовой пояс: GMT + 4



Вы не можете начинать темы
Вы не можете отвечать на сообщения
Вы не можете редактировать свои сообщения
Вы не можете удалять свои сообщения
Вы не можете голосовать в опросах
Вы не можете прикреплять файлы к сообщениям
Вы не можете скачивать файлы