Ошибка

Прослушка 3 / На прослушке 3 / Подслушанное 3 / Overheard 3 (Феликс Чонг, Сиу Фай Мак) [2014, Триллер, криминал, HDRip]

Ответить на тему
 
Автор Сообщение

L

Пол: Пол:Муж

Стаж: 6 лет 7 месяцев

Сообщений: 10789

Украина
Рейтинг

post 10-Фев-2015 09:20 1[+]

[Цитировать] 

Подслушанное 3/ Overheard 3
Год выпуска: 2014
Жанр: Триллер, криминал
Выпущено: Китай, Гонконг, Bona International Film Group, Pop Movies, Sil-Metropole Organisation
Продолжительность: 02:11:44
Перевод: Любительский одноголосый
  • Перевод: Skyworker
  • Озвучка: den904


Режиссер: Феликс Чонг, Сиу Фай Мак
В ролях: Алекс Фонг, И Хуан, Луис Ку, Ка Танг Лам, Чинг Ван Лау, Лан Ло, Кеннет Цан, Дэниэл Ву, Мишель Йе, Сюнь Чжоу

О фильме: В последние годы чиновники Гонконга проводили политику, отстаивающую интересы, в первую очередь, коренных обитателей города, в то время как приезжие испытывали дискриминацию. Естественно, такое положение дел вызывало недовольство у многих жителей города и напряжение в общество нарастало. Но только активное использование «жучков» позволило в полной мере осознать, насколько сложная и взрывоопасная ситуация сложилась в Гонконге.
Качество: HDRip
Формат: AVI
Видео: XviD, 1381 Кбит/с, 720x304
Аудио: АС3, 2 ch, 192 Кбит/с
Общее
Полное имя : D:\Тапкораздачи\Podslushannoe.3.2014.L1.HDRip.avi
Формат : AVI
Формат/Информация : Audio Video Interleave
Размер файла : 1,46 Гбайт
Продолжительность : 2 ч. 11 м.
Общий поток : 1582 Кбит/сек
Программа кодирования : VirtualDubMod 1.5.10.3 | www.virtualdub-fr.org || (build 2550/release)
Библиотека кодирования : VirtualDubMod build 2550/release

Видео
Идентификатор : 0
Формат : MPEG-4 Visual
Профиль формата : Advanced Simple@L5
Параметр BVOP формата : 1
Параметр QPel формата : Нет
Параметр GMC формата : Без точки перехода
Параметр матрицы формата : Выборочная
Идентификатор кодека : XVID
Идентификатор кодека/Подсказка : XviD
Продолжительность : 2 ч. 11 м.
Битрейт : 1381 Кбит/сек
Ширина : 720 пикселей
Высота : 304 пикселя
Соотношение сторон : 2,35:1
Частота кадров : 24,000 кадра/сек
Цветовое пространство : YUV
Субдискретизация насыщенности : 4:2:0
Битовая глубина : 8 бит
Тип развёртки : Прогрессивная
Метод сжатия : С потерями
Бит/(Пиксели*Кадры) : 0.263
Размер потока : 1,27 Гбайт (87%)
Библиотека кодирования : XviD 73

Аудио
Идентификатор : 1
Формат : AC-3
Формат/Информация : Audio Coding 3
Расширение режима : CM (complete main)
Параметр Endianness формата : Big
Идентификатор кодека : 2000
Продолжительность : 2 ч. 11 м.
Вид битрейта : Постоянный
Битрейт : 192 Кбит/сек
Каналы : 2 канала
Расположение каналов : Front: L R
Частота : 48,0 КГц
Битовая глубина : 16 бит
Метод сжатия : С потерями
Размер потока : 181 Мбайт (12%)
Выравнивание : Разделение по промежуткам
Продолжительность промежутка : 42 мс. (1,00 видеокадр)
Время предзагрузки промежутка : 500 мс.
info [Профиль]  [ЛС] 

Superiorest

Пол: Пол:Муж

Стаж: 2 года 6 месяцев

Сообщений: 17

Ямайка
Рейтинг

post 10-Фев-2015 15:01 (спустя 5 часов) [-]0[+]

[Цитировать] 

Постер класс !

_________________
Respect to Scarabey,chopper887,zim2001,$in0bi,kingsize87,lankano, L
Mike Brewer ,Edd China and Jeremy Wade
info [Профиль]  [ЛС] 

JACKIE

Пол: Пол:Муж

Стаж: 7 лет 8 месяцев

Сообщений: 460

Россия
Рейтинг

post 10-Фев-2015 21:55 (спустя 6 часов) [-]-4[+]

[Цитировать] 

И это все что ты можешь написать...

_________________
info [Профиль]  [ЛС] 

h186nur

Пол: Пол:Муж

Стаж: 4 года

Сообщений: 5

Россия
Рейтинг

post 11-Фев-2015 01:47 (спустя 3 часа) [-]0[+]

[Цитировать] 

Даже описание напоминает старый американский и очень крутой сериал HBO "Прослушка",не говоря и о названии
info [Профиль]  [ЛС] 

cos1473

Пол: Пол:Муж

Стаж: 2 года 8 месяцев

Сообщений: 7

Россия
Рейтинг

post 11-Фев-2015 15:12 (спустя 13 часов) [-]0[+]

[Цитировать] 

Стоит смотреть?
info [Профиль]  [ЛС] 

L

Пол: Пол:Муж

Стаж: 6 лет 7 месяцев

Сообщений: 10789

Украина
Рейтинг

post 11-Фев-2015 18:26 (спустя 3 часа) [-]0[+]

[Цитировать] 

Два первых фильма мне очень понравились. Ожидаю того же и от третьего

_________________
info [Профиль]  [ЛС] 

post 05-Фев-2016 00:58 (спустя 11 месяцев 21 день) [-]0[+]

Топик был перенесен из форума Новинки 2014-2015 (Rips) в форум Азиатское кино | Rips

LyaKich
 
Показать сообщения:    
Ответить на тему

Текущее время: 05-Дек 22:46

Часовой пояс: GMT + 4



Вы не можете начинать темы
Вы не можете отвечать на сообщения
Вы не можете редактировать свои сообщения
Вы не можете удалять свои сообщения
Вы не можете голосовать в опросах
Вы не можете прикреплять файлы к сообщениям
Вы не можете скачивать файлы