Ошибка

Астерикс: Земля Богов / Asterix: Le domaine des dieux (Луис Клиши, Александр Астье) [2014, мультфильм, приключения, фэнтези, комедия, BDRip 1080p 3D]

Ответить на тему
 
Автор Сообщение

koss555

Пол: Пол:Муж

Стаж: 4 года 10 месяцев

Сообщений: 1549

Россия
Рейтинг

post 07-Фев-2015 14:25 1[+]

[Цитировать] 

Астерикс: Земля Богов / Asterix: Le domaine des dieux
«Самый громкий! Самый остроумный! Самый увлекательный!»

Год выпуска: 2014
Страна: Франция
Жанр: мультфильм, приключения, фэнтези, комедия
Продолжительность: 01:25:34
Перевод: Дублированное [лицензия]

Режиссер: Луис Клиши, Александр Астье
Сценарий: Александр Астье, Жан-Реми Франсуа, Филип ЛаЗебник
Продюсер: Филипп Бони, Томас Валентин, Натали Альтман
Композитор: Филипп Ромби
Монтаж: Солин Гийонно

В ролях: Вадим Галыгин, Даниил Эльдаров, Денис Беспалый, Денис Строев, Кирилл Туранск

Описание: Астерикс и его лучший друг Обеликс продолжают свою многолетнюю борьбу с Цезарем, который хочет наконец-то расправиться с неукротимыми галлами. Вокруг деревни Астерикса Цезарь приказывает построить новый Рим — Землю Богов. В галльской деревне хаос и смятение. Но Астерикс и Обеликс не сдаются!
Сборы в России: $781 087
Зрители: 452.2 тыс.
Премьера (мир): 26 ноября 2014
Премьера (РФ): 18 декабря 2014, «Парадиз» 3D
Релиз на DVD: 10 февраля 2015«Парадиз / Активижен»
Релиз на Blu-Ray: 10 февраля 2015 «Парадиз / Активижен»



Качество: BDRip 1080p 3D
Формат: MKV
Видео кодек: AVC
Аудио кодеk: AC3
Видео: 1920x1080 (16:9), 23.976 fps, AVC, 5 115 Kbps
Аудио: Аудио #1: AC3, 640 Kbps, 48.0 KHz, 6 ch
General
Complete name : Asterix.TheMansionsOfTheGods.3D.2014.BDrip.Half.OU.x264.AC3.mkv
Format : Matroska
File size : 3.51 GiB
Duration : 1h 25mn
Overall bit rate : 5 872 Kbps
Movie name : Asterix: Le domaine des dieux 3D rip by itsamna aka StarStranger release BLUEBIRD (3D-RuGroup & R.G. AVI | AVC) release BLUEBIRD
Encoded date : UTC 2015-02-06 23:38:42
Writing application : mkvmerge v6.8.0 ('Theme for Great Cities') 32bit built on Mar 2 2014 21:27:07
Writing library : libebml v1.3.0 + libmatroska v1.4.1

Video
ID : 1
Format : AVC
Format/Info : Advanced Video Codec
Format profile : High@L4.1
Format settings, CABAC : Yes
Format settings, ReFrames : 4 frames
Muxing mode : Container profile=Unknown@4.1
Codec ID : V_MPEG4/ISO/AVC
Duration : 1h 25mn
Bit rate : 5 115 Kbps
Width : 1 920 pixels
Height : 1 080 pixels
Display aspect ratio : 16:9
Frame rate : 23.976 fps
Color space : YUV
Chroma subsampling : 4:2:0
Bit depth : 8 bits
Scan type : Progressive
Bits/(Pixel*Frame) : 0.103
Stream size : 3.06 GiB (87%)
Writing library : x264 core 130 r2273 b3065e6
Encoding settings : cabac=1 / ref=4 / deblock=1:-3:-3 / analyse=0x3:0x133 / me=umh / subme=10 / psy=1 / psy_rd=1.05:0.15 / mixed_ref=1 / me_range=32 / chroma_me=1 / trellis=2 / 8x8dct=1 / cqm=0 / deadzone=21,11 / fast_pskip=0 / chroma_qp_offset=-3 / threads=12 / lookahead_threads=2 / sliced_threads=0 / nr=0 / decimate=1 / interlaced=0 / bluray_compat=0 / constrained_intra=0 / bframes=8 / b_pyramid=2 / b_adapt=2 / b_bias=0 / direct=3 / weightb=1 / open_gop=0 / weightp=2 / keyint=250 / keyint_min=23 / scenecut=40 / intra_refresh=0 / rc_lookahead=60 / rc=crf / mbtree=1 / crf=18.0 / qcomp=0.60 / qpmin=0 / qpmax=69 / qpstep=4 / vbv_maxrate=50000 / vbv_bufsize=62500 / crf_max=0.0 / nal_hrd=none / ip_ratio=1.40 / aq=1:0.90

Audio
ID : 2
Format : AC-3
Format/Info : Audio Coding 3
Mode extension : CM (complete main)
Codec ID : A_AC3
Duration : 1h 25mn
Bit rate mode : Constant
Bit rate : 640 Kbps
Channel(s) : 6 channels
Channel positions : Front: L C R, Side: L R, LFE
Sampling rate : 48.0 KHz
Bit depth : 16 bits
Stream size : 392 MiB (11%)
Language : Russian

Menu
00:00:00.000 : :01
00:09:02.208 : :02
00:20:30.187 : :03
00:31:00.525 : :04
00:44:12.316 : :05
00:56:11.201 : :06
01:04:48.718 : :07
01:17:21.762 : :08
info [Профиль]  [ЛС] 

dimil

Пол: Пол:Муж

Стаж: 5 лет 5 месяцев

Сообщений: 128

Украина
Рейтинг

post 19-Фев-2015 00:22 (спустя 11 дней) [-]0[+]

[Цитировать] 

Я понимаю что в правилах это не сказанно, но для удобства пользователей лучше бы указывать тип 3D файла (в данном случае вертикальная анаморфная стереопара) и порядок ракурсов (иначе неилюзорно можно потерять в качесве и голова может разболеться).
P.S. Сам мультик нарисован забавно, довольно детский, разок глянуть и забыть.

_________________
Это - демо-версия поста. В полной версии мои мысли описаны более полно и без орфографических ошибок. Чтобы увидеть полную версию вы должны заплатить мне денег!
info [Профиль]  [ЛС] 

post 13-Май-2015 13:52 (спустя 2 месяца 22 дня) [-]0[+]

Топик был перенесен из форума Новинки (3D) в форум 3D

BZzz
 
Показать сообщения:    
Ответить на тему

Текущее время: 03-Дек 00:13

Часовой пояс: GMT + 4



Вы не можете начинать темы
Вы не можете отвечать на сообщения
Вы не можете редактировать свои сообщения
Вы не можете удалять свои сообщения
Вы не можете голосовать в опросах
Вы не можете прикреплять файлы к сообщениям
Вы не можете скачивать файлы