Ошибка

Здорово и Вечно (Наталья Чумакова, Анна Цирлина) [2014, Документальный, TeleSync]

Ответить на тему
 
Автор Сообщение

GT

Пол: Пол:Муж

Стаж: 5 лет 5 месяцев

Сообщений: 513

Россия
Рейтинг

post 05-Фев-2015 00:03 1[+]

[Цитировать] 

Здорово и вечно

pic="http://s015.radikal.ru/i332/1502/80/26a7258ffb08.jpg"
Год выпуска: 2014
Страна:Россия
Жанр: Документальный
Продолжительность: 01:23:34
Перевод: Оригинал
Режиссер: Наталья Чумакова, Анна Цирлина
Описание:
Документальный фильм о ранних годах «Гражданской обороны».
Качество: TeleSync
Формат: MP4
Видео кодек: AVC
Аудио кодек: AAC
Видео: 854x480 24fps 880 Kbps
Аудио: 44100Hz stereo 147kbps
Сэмпл: http://sendfile.su/1071532
General
Complete name : D:\Downloads\Здорово и Вечно.mp4
Format : MPEG-4
Format profile : Base Media
Codec ID : isom
File size : 606 MiB
Duration : 1h 23mn
Overall bit rate mode : Variable
Overall bit rate : 1 013 Kbps
Writing application : Lavf55.48.100

Video
ID : 1
Format : AVC
Format/Info : Advanced Video Codec
Format profile : Baseline@L3.0
Format settings, CABAC : No
Format settings, ReFrames : 3 frames
Codec ID : avc1
Codec ID/Info : Advanced Video Coding
Duration : 1h 23mn
Bit rate : 880 Kbps
Width : 854 pixels
Height : 480 pixels
Display aspect ratio : 16:9
Frame rate mode : Constant
Frame rate : 24.000 fps
Color space : YUV
Chroma subsampling : 4:2:0
Bit depth : 8 bits
Scan type : Progressive
Bits/(Pixel*Frame) : 0.089
Stream size : 515 MiB (85%)
Writing library : x264 core 142
Encoding settings : cabac=0 / ref=3 / deblock=1:0:0 / analyse=0x1:0x111 / me=hex / subme=7 / psy=1 / psy_rd=1.00:0.00 / mixed_ref=1 / me_range=16 / chroma_me=1 / trellis=1 / 8x8dct=0 / cqm=0 / deadzone=21,11 / fast_pskip=1 / chroma_qp_offset=-2 / threads=8 / lookahead_threads=1 / sliced_threads=0 / nr=0 / decimate=1 / interlaced=0 / bluray_compat=0 / constrained_intra=0 / bframes=0 / weightp=0 / keyint=250 / keyint_min=24 / scenecut=40 / intra_refresh=0 / rc_lookahead=40 / rc=abr / mbtree=1 / bitrate=880 / ratetol=1.0 / qcomp=0.60 / qpmin=0 / qpmax=69 / qpstep=4 / ip_ratio=1.40 / aq=1:1.00

Audio
ID : 2
Format : AAC
Format/Info : Advanced Audio Codec
Format profile : LC
Codec ID : 40
Duration : 1h 23mn
Duration_LastFrame : -18ms
Bit rate mode : Variable
Bit rate : 147 Kbps
Maximum bit rate : 160 Kbps
Channel(s) : 2 channels
Channel positions : Front: L R
Sampling rate : 44.1 KHz
Compression mode : Lossy
Stream size : 87.9 MiB (15%)
info [Профиль]  [ЛС] 

post 05-Фев-2015 01:04 (спустя 1 час 1 минута) [-]0[+]

Топик был перенесен из форума Анонсы в форум Документальные фильмы и телепередачи

BZzz
 

zengarden

Пол: Пол:Муж

Стаж: 3 года 9 месяцев

Сообщений: 44

Россия
Рейтинг

post 05-Фев-2015 02:42 (спустя 2 часа 38 минут) [-]0[+]

[Цитировать] 

То же самое на ютубе: http://www.youtube.com/watch?v=SvCylvD70fw

Но всё равно спасибо Улыбаюсь

Аннотация с офсайта:
Фильм «Здорово и вечно» — первый и единственный фильм, посвященный ранним годам группы «Гражданская Оборона», режиссерский дебют Натальи Чумаковой, бас-гитаристки группы и вдовы Егора Летова, и Анны Цирлиной. В основу фильма легли уникальные съемки, сделанные участниками группы, интервью с людьми, принимавшими активное участие в судьбе «Обороны» на начальном этапе, редкие архивные кадры. Режиссеры фильма сделали почти невозможное — собрали внятный и ослепительно живой рассказ о том, как Игорь Летов стал Егором Летовым, фиксирующий происходившее с ним и его кругом с начала 80-х по начало 90-х. «Здорово и вечно» — это не документальный байопик в строгом смысле слова, но скорее успешная попытка поймать мятежный дух времени и людей, которые ломали это время под себя.
info [Профиль]  [ЛС] 

mr.Grim

Стаж: 7 лет 3 месяца

Сообщений: 34

СССР
Рейтинг

post 05-Фев-2015 15:21 (спустя 12 часов) [-]0[+]

[Цитировать] 

спасибо за релиз.

_________________
info [Профиль]  [ЛС] 

ramme-44

Пол: Пол:Муж

Стаж: 7 лет 7 месяцев

Сообщений: 40

Предупреждений: 1

Россия
Рейтинг

post 27-Мар-2015 04:04 (спустя 1 месяц 21 день) [-]0[+]

[Цитировать] 

Цитата:

То же самое на ютубе: http://www.youtube.com/watch?v=SvCylvD70fw
Закрыла зараза ! Егор не был таким жадным , жену конечно выбрал - сучка та ещё.
info [Профиль]  [ЛС] 
Показать сообщения:    
Ответить на тему

Текущее время: 04-Дек 12:16

Часовой пояс: GMT + 4



Вы не можете начинать темы
Вы не можете отвечать на сообщения
Вы не можете редактировать свои сообщения
Вы не можете удалять свои сообщения
Вы не можете голосовать в опросах
Вы не можете прикреплять файлы к сообщениям
Вы не можете скачивать файлы