Ошибка

BBC: Загадка римских катакомб / BBC: The Mystery of Rome's X Tomb (Пол Олдинг) [2013 г., документальный, научно-познавательный, SATRip]

Ответить на тему
 
Автор Сообщение

markfiter

Пол: Пол:Муж

Стаж: 5 лет 3 месяца

Сообщений: 2772

Предупреждений: 1

Германия
Рейтинг

post 02-Фев-2015 02:31 0[+]

[Цитировать] 

BBC: Загадка римских катакомб / BBC: The Mystery of Rome's X Tomb

Год выпуска: 2013
Страна: Великобритания
Жанр: документальный, научно-познавательный
Продолжительность: 00:51:50
Перевод: Профессиональный (полное дублирование)

Режиссер: Пол Олдинг

Описание: Катакомбы Рима - сеть античных катакомб, использовавшихся как места погребений, по большей части в период раннего христианства. Всего в Риме насчитывают более 60 различных катакомб (150—170 км длиной, около 750 000 захоронений), большинство из которых расположены под землей вдоль Аппиевой дороги. Эти катакомбы представляют собой систему подземных ходов из туфа, зачастую образующих лабиринты. В их стенах для погребений проделывались прямоугольные ниши (лат. loculi) разной величины (главным образом для одного умершего, иногда для двух, и редко — для нескольких тел). На сегодняшний день почти все ниши открыты и пусты, однако сохранились и до сих пор закрытые (например, в катакомбах Панфила). С конца IX века посещение римских катакомб, лишившихся привлекавших паломников мощей, практически прекращаются, в XI—XII веках описаны единичные случаи подобных визитов.

Качество: SATRip
Формат: AVI
Видео кодек: XviD
Аудио кодек: AC3
Видео: 720x416, 25fps, ~1750 Kbps
Аудио: 48000Hz, stereo, ~192kbps
Общее
Формат : AVI
Формат/Информация : Audio Video Interleave
Размер файла : 724 Мбайт
Продолжительность : 51 м.
Общий поток : 1952 Кбит/сек
Название фильма : BBC. The Mystery of Rome's X Tomb
Режиссёр : SATRip by Thunder
Программа кодирования : VirtualDubMod 1.5.10.3 | www.virtualdub-fr.org || (build 2550/release)
Формат оригинала/Имя : Documentary

Видео
Идентификатор : 0
Формат : MPEG-4 Visual
Профиль формата : Advanced Simple@L5
Параметр BVOP формата : 2
Параметр QPel формата : Нет
Параметр GMC формата : Без точки перехода
Параметр матрицы формата : Default (H.263)
Идентификатор кодека : XVID
Идентификатор кодека/Подсказка : XviD
Продолжительность : 51 м.
Битрейт : 1750 Кбит/сек
Ширина : 720 пикселей
Высота : 416 пикселей
Соотношение сторон : 1,731
Частота кадров : 25,000 кадров/сек
Цветовое пространство : YUV
Субдискретизация насыщенности : 4:2:0
Битовая глубина : 8 бит
Тип развёртки : Прогрессивная
Метод сжатия : С потерями
Бит/(Пиксели*Кадры) : 0.234
Размер потока : 649 Мбайт (90%)
Библиотека кодирования : XviD 1.2.1 (UTC 2008-12-04)

Аудио
Идентификатор : 1
Формат : AC-3
Формат/Информация : Audio Coding 3
Расширение режима : CM (complete main)
Параметр Endianness формата : Big
Идентификатор кодека : 2000
Продолжительность : 51 м.
Вид битрейта : Постоянный
Битрейт : 192 Кбит/сек
Каналы : 2 канала
Расположение каналов : Front: L R
Частота : 48,0 КГц
Битовая глубина : 16 бит
Метод сжатия : С потерями
Размер потока : 71,2 Мбайт (10%)
Выравнивание : Разделение по промежуткам
Продолжительность промежутка : 40 мс. (1,00 видеокадр)
Время предзагрузки промежутка : 500 мс.
info [Профиль]  [ЛС] 
Показать сообщения:    
Ответить на тему

Текущее время: 29-Мар 09:31

Часовой пояс: GMT + 4



Вы не можете начинать темы
Вы не можете отвечать на сообщения
Вы не можете редактировать свои сообщения
Вы не можете удалять свои сообщения
Вы не можете голосовать в опросах
Вы не можете прикреплять файлы к сообщениям
Вы не можете скачивать файлы