Ошибка

BBC: Его величество - случай / BBC: The Joy of Chance (Дэн Хиллман) [2014 г., документальный, научно-познавательный, SATRip]

Ответить на тему
 
Автор Сообщение

markfiter

Пол: Пол:Муж

Стаж: 4 года 11 месяцев

Сообщений: 2731

Германия
Рейтинг

post 31-Янв-2015 23:37 2[+]

[Цитировать] 

BBC: Его величество - случай / BBC: The Joy of Chance

Год выпуска: 2014
Страна: Великобритания
Жанр: документальный, научно-познавательный
Продолжительность: 00:59:03
Перевод: Профессиональный (полное дублирование)

Режиссер: Дэн Хиллман

Описание: Каков шанс погибнуть при прыжке с парашюта? Какова вероятность дожить до ста лет? Можно ли математически спрогнозировать джек-пот? Все о случайностях, закономерностях, и вероятностях – документальный фильм «Его величество - случай» на канале «Наука 2.0»

Качество: SATRip
Формат: AVI
Видео кодек: XviD
Аудио кодек: AC3
Видео: 720x400, 25fps, ~1700 Kbps
Аудио: 48000Hz, stereo, ~192kbps
Общее
Формат : AVI
Формат/Информация : Audio Video Interleave
Размер файла : 803 Мбайт
Продолжительность : 59 м.
Общий поток : 1902 Кбит/сек
Название фильма : BBC. The Joy of Chance
Режиссёр : SATRip by Thunder
Программа кодирования : VirtualDubMod 1.5.10.3 | www.virtualdub-fr.org || (build 2550/release)
Формат оригинала/Имя : Documentary

Видео
Идентификатор : 0
Формат : MPEG-4 Visual
Профиль формата : Advanced Simple@L5
Параметр BVOP формата : 2
Параметр QPel формата : Нет
Параметр GMC формата : Без точки перехода
Параметр матрицы формата : Default (H.263)
Идентификатор кодека : XVID
Идентификатор кодека/Подсказка : XviD
Продолжительность : 59 м.
Битрейт : 1700 Кбит/сек
Ширина : 720 пикселей
Высота : 400 пикселей
Соотношение сторон : 16:9
Частота кадров : 25,000 кадров/сек
Цветовое пространство : YUV
Субдискретизация насыщенности : 4:2:0
Битовая глубина : 8 бит
Тип развёртки : Прогрессивная
Метод сжатия : С потерями
Бит/(Пиксели*Кадры) : 0.236
Размер потока : 718 Мбайт (89%)
Библиотека кодирования : XviD 1.2.1 (UTC 2008-12-04)

Аудио
Идентификатор : 1
Формат : AC-3
Формат/Информация : Audio Coding 3
Расширение режима : CM (complete main)
Параметр Endianness формата : Big
Идентификатор кодека : 2000
Продолжительность : 59 м.
Вид битрейта : Постоянный
Битрейт : 192 Кбит/сек
Каналы : 2 канала
Расположение каналов : Front: L R
Частота : 48,0 КГц
Битовая глубина : 16 бит
Метод сжатия : С потерями
Размер потока : 81,1 Мбайт (10%)
Выравнивание : Разделение по промежуткам
Продолжительность промежутка : 40 мс. (1,00 видеокадр)
Время предзагрузки промежутка : 500 мс.
info [Профиль]  [ЛС] 
Показать сообщения:    
Ответить на тему

Текущее время: 11-Дек 04:14

Часовой пояс: GMT + 4



Вы не можете начинать темы
Вы не можете отвечать на сообщения
Вы не можете редактировать свои сообщения
Вы не можете удалять свои сообщения
Вы не можете голосовать в опросах
Вы не можете прикреплять файлы к сообщениям
Вы не можете скачивать файлы