Ошибка

Доисторические монстры Гитлера / Hitler's Jurassic Monsters (Джереми Бристоу) [2014 г., документальный, SATRip]

Ответить на тему
 
Автор Сообщение

markfiter

Пол: Пол:Муж

Стаж: 4 года 11 месяцев

Сообщений: 2729

Германия
Рейтинг

post 31-Янв-2015 23:17 0[+]

[Цитировать] 

Доисторические монстры Гитлера / Hitler's Jurassic Monsters

Год выпуска: 2014
Страна: США
Жанр: документальный
Продолжительность: 00:44:00
Перевод: Профессиональный (одноголосый)

Режиссер: Джереми Бристоу

Описание: Рассказ о том, как нацисты с помощью лучших ученых Германии планировали создать обширные парки для охоты, нарушающие законы природы.
До сих пор некоторые планы третьего рейха вызывают интерес мировых ученых и историков. Например об одно м из этих планов стало известно современникам .Нацисты хотели воссоздать то что уже давно перестало существовать. Научные работники СС пытались восстановить доисторических животных для использования в своих целях. Этих зверей хотели возродить для развлечения высшей расы. Это была попытка починить себе историю и изменить ход эволюции . Все начиналось с Беловежской Пущи. Особо отличился в тех событиях триста двадцать первый батальон , описания его зверств дошли до наших дней.

Качество: SATRip
Формат: AVI
Видео кодек: XviD
Аудио кодек: MP3
Видео: 704x400 (16:9), ~1530 Kbps, 25 fps
Аудио: 2 ch, ~128 Kbps, 44.1 KHz
Общее
Формат : AVI
Формат/Информация : Audio Video Interleave
Размер файла : 526 Мбайт
Продолжительность : 43 м.
Общий поток : 1673 Кбит/сек
Программа кодирования : VirtualDubMod 1.5.10.3 | www.virtualdub-fr.org || (build 2550/release)
Библиотека кодирования : VirtualDub build 35491/release

Видео
Идентификатор : 0
Формат : MPEG-4 Visual
Профиль формата : Advanced Simple@L5
Параметр BVOP формата : 1
Параметр QPel формата : Нет
Параметр GMC формата : Без точки перехода
Параметр матрицы формата : Выборочная
Идентификатор кодека : XVID
Идентификатор кодека/Подсказка : XviD
Продолжительность : 43 м.
Битрейт : 1535 Кбит/сек
Ширина : 704 пикселя
Высота : 400 пикселей
Соотношение сторон : 16:9
Частота кадров : 25,000 кадров/сек
Цветовое пространство : YUV
Субдискретизация насыщенности : 4:2:0
Битовая глубина : 8 бит
Тип развёртки : Прогрессивная
Метод сжатия : С потерями
Бит/(Пиксели*Кадры) : 0.218
Размер потока : 482 Мбайт (92%)
Библиотека кодирования : XviD 1.2.1 (UTC 2008-12-04)

Аудио
Идентификатор : 1
Формат : MPEG Audio
Версия формата : Version 1
Профиль формата : Layer 3
Идентификатор кодека : 55
Идентификатор кодека/Подсказка : MP3
Продолжительность : 43 м.
Вид битрейта : Постоянный
Битрейт : 128 Кбит/сек
Каналы : 2 канала
Частота : 44,1 КГц
Метод сжатия : С потерями
Задержка видео : 17 мс.
Размер потока : 40,2 Мбайт (8%)
Выравнивание : Разделение по промежуткам
Продолжительность промежутка : 40 мс. (1,00 видеокадр)
Время предзагрузки промежутка : 500 мс.
info [Профиль]  [ЛС] 

FinalLench

Пол: Пол:Муж

Стаж: 7 лет

Сообщений: 541

Предупреждений: 1

Рейтинг

post 31-Янв-2015 23:55 (спустя 38 минут) [-]16[+]

[Цитировать] 

info [Профиль]  [ЛС] 

Kaiser88

Стаж: 5 лет 5 месяцев

Сообщений: 99

СССР
Рейтинг

post 01-Фев-2015 00:04 (спустя 8 минут) [-]0[+]

[Цитировать] 

FinalLench писал(а):

Что ж ты делаешь ?

Порвало Смеюсь
info [Профиль]  [ЛС] 

govn0

Стаж: 2 года 6 месяцев

Сообщений: 44

Рейтинг

post 01-Фев-2015 00:41 (спустя 37 минут) [-]0[+]

[Цитировать] 

Хитлера надо было ещё нарисовать в виде зомби.

_________________
info [Профиль]  [ЛС] 

shuraly1975

Пол: Пол:Муж

Стаж: 3 года 10 месяцев

Сообщений: 1

Россия
Рейтинг

post 01-Фев-2015 10:13 (спустя 9 часов) [-]0[+]

[Цитировать] 

Какой, нафиг, спайс!? Тут авторы фильма что-то реально офигенное курят.
info [Профиль]  [ЛС] 

donnimator

Стаж: 5 лет

Сообщений: 172

Россия
Рейтинг

post 01-Фев-2015 14:58 (спустя 4 часа) [-]-1[+]

[Цитировать] 

Вот это поворот.
info [Профиль]  [ЛС] 

Волк

Пол: Пол:Муж

Стаж: 6 лет 2 месяца

Сообщений: 43

Украина
Рейтинг

post 01-Фев-2015 16:33 (спустя 1 час 34 минуты) [-]0[+]

[Цитировать] 

markfiter писал(а):

Это была попытка подчинить себе историю
ошибочка
За раздачу спасибо !
info [Профиль]  [ЛС] 
Показать сообщения:    
Ответить на тему

Текущее время: 09-Дек 00:15

Часовой пояс: GMT + 4



Вы не можете начинать темы
Вы не можете отвечать на сообщения
Вы не можете редактировать свои сообщения
Вы не можете удалять свои сообщения
Вы не можете голосовать в опросах
Вы не можете прикреплять файлы к сообщениям
Вы не можете скачивать файлы