Ошибка

Джокер (Юрий Кузьменко) [1991, боевик, приключения, DVDRip]

Ответить на тему
 
Автор Сообщение

vol4

Пол: Пол:Муж

Стаж: 1 год 10 месяцев

Сообщений: 4

Рейтинг

post 30-Янв-2015 03:00 1[+]

[Цитировать] 

Джокер (Юрий Кузьменко) [1991, боевик, приключения, DVDRip]

Год выпуска: 1991
Производство: СССР
Жанр: боевик, приключения
Субтитры: Отсутствуют

Режиссер: Юрий Кузьменко
Актеры: Валерий Сторожик, Вячеслав Молоков, Андрей Болтнев, Татьяна Агафонова, Лев Лемке, Тигран Кеосаян, Виктор Павловский, Александр Буреев, Юрий Вотяков, Сергей Николаев

Описание фильма:
В руки двух друзей-авантюристов попадает древний манускрипт. «Аристократ» Джокер и нечистый на руку Хрущ отправляются на поиски клада. За этими же сокровищами охотится хладнокровный и жестокий Капитан. Джокер и Хрущ пытаются действовать поодиночке, но лишь вдвоем им удается победить соперника. Сокровища, правда, не достаются никому, но это не главное…

Продолжительность: 01:25:10
Качество видео: DVDRip

Видеокодек: H.264
Битрейт видео: ~2000 Кбит/сек
Размер кадра: 768 x 576 (4:3) at 25.000 fps
Аудио: MP3 192 Кбит/сек (2ch), 48,0 КГц

Код:

General
Complete name               : D:\Joker-1991.avi
Format                      : AVI
Format/Info                 : Audio Video Interleave
Format profile              : OpenDML
File size                   : 1.29 GiB
Duration                    : 1h 25mn
Overall bit rate            : 2 166 Kbps
Writing application         : Lavf54.63.104

Video
ID                          : 0
Format                      : AVC
Format/Info                 : Advanced Video Codec
Format profile              : Main@L3.1
Format settings, CABAC      : Yes
Format settings, ReFrames   : 1 frame
Format settings, GOP        : N=1
Codec ID                    : H264
Duration                    : 1h 25mn
Bit rate                    : 1 959 Kbps
Width                       : 768 pixels
Height                      : 576 pixels
Display aspect ratio        : 4:3
Frame rate mode             : Variable
Frame rate                  : 25.000 fps
Color space                 : YUV
Chroma subsampling          : 4:2:0
Bit depth                   : 8 bits
Scan type                   : Progressive
Bits/(Pixel*Frame)          : 0.177
Stream size                 : 1.17 GiB (90%)
Writing library             : x264 core 129

Audio
ID                          : 1
Format                      : MPEG Audio
Format version              : Version 1
Format profile              : Layer 3
Mode                        : Joint stereo
Mode extension              : MS Stereo
Codec ID                    : 55
Codec ID/Hint               : MP3
Duration                    : 1h 25mn
Bit rate mode               : Constant
Bit rate                    : 192 Kbps
Channel(s)                  : 2 channels
Sampling rate               : 48.0 KHz
Compression mode            : Lossy
Stream size                 : 117 MiB (9%)
Alignment                   : Aligned on interleaves
Interleave, duration        : 24 ms (0.60 video frame)

info [Профиль]  [ЛС] 

BZzz

Пол: Пол:Муж

Стаж: 5 лет 1 месяц

Сообщений: 3647

Россия
Рейтинг

post 30-Янв-2015 03:21 (спустя 20 минут) [-]0[+]

[Цитировать] 

Цитата:

Допустимые размеры релизов в разделе "Кинематограф" для ASP и AVC рипов. Рипам, размеры которых выходят за обозначенные рамки, будет присваиваться статус "X Закрыто".
  • 690-750 Мб
  • 1.36Gb-1.47 Гб
  • 2.05Gb- 2.19 Гб
  • 2.90Gb-2.92Gb
  • 4.32Gb-4.37Gb

_________________
info [Профиль]  [ЛС] 

post 30-Янв-2015 03:38 (спустя 17 минут) [-]0[+]

Топик был перенесен из форума Анонсы в форум Советское кино (Rips)

BZzz
 

iSA

Стаж: 3 года 5 месяцев

Сообщений: 13

Рейтинг

post 30-Янв-2015 10:31 (спустя 7 часов) [-]-1[+]

[Цитировать] 

хороший фильмец, надо пересмотреть, спасибо за релиз
info [Профиль]  [ЛС] 

devildantedd

Стаж: 3 года 8 месяцев

Сообщений: 42

Рейтинг

post 30-Янв-2015 17:53 (спустя 7 часов) [-]-1[+]

[Цитировать] 

По описанию вспомнился корейский фильм "Хороший, плохой, долбанутый". bm
info [Профиль]  [ЛС] 
Показать сообщения:    
Ответить на тему

Текущее время: 09-Дек 15:41

Часовой пояс: GMT + 4



Вы не можете начинать темы
Вы не можете отвечать на сообщения
Вы не можете редактировать свои сообщения
Вы не можете удалять свои сообщения
Вы не можете голосовать в опросах
Вы не можете прикреплять файлы к сообщениям
Вы не можете скачивать файлы