Ошибка

Розыгрыш (Владимир Меньшов) [1976, мелодрама, молодежный фильм, DVDRip]

Ответить на тему
 
Автор Сообщение

vol4

Пол: Пол:Муж

Стаж: 1 год 10 месяцев

Сообщений: 4

Рейтинг

post 29-Янв-2015 11:51 1[+]

[Цитировать] 

Розыгрыш

Год выпуска: 1976
Производство: СССР
Жанр: мелодрама, молодежный фильм
Субтитры: Отсутствуют

Дата мировой премьеры: 10 января 1977 (СССР)
Дата выхода DVD релиза: 21 октября 2008, «Lizard Cinema Trade»

Режиссер: Владимир Меньшов
Актеры: Евгения Ханаева, Дмитрий Харатьян, Андрей Гусев, Наталья Вавилова, Евдокия Германова, Наталья Фатеева, Александр Жильцов, Николай Константинов, Арсен Михайлов, Ирина Кораблева

Описание фильма:
Жизнь ставит перед старшеклассниками первые «взрослые» вопросы. Прощаясь с детством, они начинают по-новому относиться к дружбе и любви, к таланту и соперничеству. Теперь подростки сами решают, каким путем идти к своей мечте…

Продолжительность: 01:30:59
Качество видео: DVDRip

Видеокодек: Xvid
Битрейт видео: ~1998 Кбит/сек
Размер кадра: 720x320
Аудио: MP3 192 Кбит/сек, 2ch, 48,0 КГц

Код:

Общее
Полное имя : F:\rozygrysh.avi
Формат : AVI
Формат/Информация : Audio Video Interleave
Размер файла : 1,40 Гбайт
Продолжительность : 1 ч. 30 м.
Общий поток : 2199 Кбит/сек
Библиотека кодирования :

Видео
Идентификатор : 0
Формат : MPEG-4 Visual
Профиль формата : Simple@L3
Параметр BVOP формата : Нет
Параметр QPel формата : Нет
Параметр GMC формата : Без точки перехода
Параметр матрицы формата : Default (H.263)
Идентификатор кодека : XVID
Идентификатор кодека/Подсказка : XviD
Продолжительность : 1 ч. 30 м.
Битрейт : 1998 Кбит/сек
Ширина : 720 пикселей
Высота : 320 пикселей
Соотношение сторон : 2,25:1
Частота кадров : 25,000 кадров/сек
Цветовое пространство : YUV
Субдискретизация насыщенности : 4:2:0
Битовая глубина : 8 бит
Тип развёртки : Прогрессивная
Метод сжатия : С потерями
Бит/(Пиксели*Кадры) : 0.347
Размер потока : 1,27 Гбайт (91%)
Библиотека кодирования : XviD 1.1.0 Beta2 (UTC 2005-04-04)

Аудио
Идентификатор : 1
Формат : MPEG Audio
Версия формата : Version 1
Профиль формата : Layer 3
Режим : Joint stereo
Расширение режима : MS Stereo
Идентификатор кодека : 55
Идентификатор кодека/Подсказка : MP3
Продолжительность : 1 ч. 30 м.
Вид битрейта : Постоянный
Битрейт : 192 Кбит/сек
Каналы : 2 канала
Частота : 48,0 КГц
Метод сжатия : С потерями
Размер потока : 125 Мбайт (9%)
Выравнивание : Разделение по промежуткам
Продолжительность промежутка : 40 мс. (1,00 видеокадр)
Время предзагрузки промежутка : 500 мс.

info [Профиль]  [ЛС] 

post 29-Янв-2015 21:19 (спустя 9 часов) [-]1[+]

Топик был перенесен из форума Анонсы в форум Советское кино (Rips)

BZzz
 

Ahuramazda

Пол: Пол:Муж

Стаж: 3 года 7 месяцев

Сообщений: 68

Буркина Фасо
Рейтинг

post 29-Янв-2015 23:57 (спустя 12 часов) [-]0[+]

[Цитировать] 

Так Харатьян не натуральный блондинк?!
info [Профиль]  [ЛС] 

vol4

Пол: Пол:Муж

Стаж: 1 год 10 месяцев

Сообщений: 4

Рейтинг

post 30-Янв-2015 00:20 (спустя 22 минуты) [-]0[+]

[Цитировать] 

В этом кино его дебют. Это по вроде единственный фильм, где он не блондин. Хотя почти в всех историях его биографии написано "голубоглазый блондин".

_________________
- Счастье - это когда у тебя все дома. © Кузя
info [Профиль]  [ЛС] 
Показать сообщения:    
Ответить на тему

Текущее время: 09-Дек 08:04

Часовой пояс: GMT + 4



Вы не можете начинать темы
Вы не можете отвечать на сообщения
Вы не можете редактировать свои сообщения
Вы не можете удалять свои сообщения
Вы не можете голосовать в опросах
Вы не можете прикреплять файлы к сообщениям
Вы не можете скачивать файлы