Ошибка

Сумрачный самурай / The Twilight Samurai [2002, Драма, DVDRip]

Ответить на тему
 
Автор Сообщение

Evgenzlo

Пол: Пол:Муж

Стаж: 1 год 11 месяцев

Сообщений: 14

Россия
Рейтинг

post 29-Янв-2015 07:25 1[+]

[Цитировать] 

Сумрачный самурай / The Twilight Samurai

Год выпуска: 2002
Страна: Япония
Жанр: Драма
Продолжительность: 02:09:00
Перевод: Профессиональный многоголосый
Режиссер:
  • Ёдзи Ямада
В ролях:
  • Хироюки Санада, Рие Миядзава, Рен Осуги, Нендзи Кобаяси, Кейко Киси, Мин Танака, Мики Ито, Тецуро Тамба, Такаши Ямадзаки

Описание: Вторая половина XIX века. Эпоха Эдо, конец правления сёгуната Токугава. Самурайские кланы теряют силу. Скоро княжества объединятся, и они вообще станут никому не нужны. Воинские ряды деморализованы, на улицах беспредел. Самураи прозябают бухгалтерами. Грустный Сейбей по кличке Сумерки (Санада), самурай рангом ниже среднего, только что похоронил жену и поставил на себе крест: вырастить бы двух маленьких дочерей, и то хорошо. Вскоре на его голову свалятся сразу два испытания: любовь молодой сестры друга Томоэ (Миядзава) и приказ убить в поединке бунтаря-самурая, отказывающегося покончить с собой.

Качество: DVDRip
Формат: AVI
Видео кодек: XviD
Аудио кодек: MP3
Видео: 720x576, 25.000 fps, 1 200 Kbps
Аудио: 48.0 KHz, 128 Kbps, 2 channels
Сэмпл: >ТыК<

IMD 8.2
General
Complete name : \tasogare_seibei.avi
Format : AVI
Format/Info : Audio Video Interleave
File size : 1.36 GiB
Duration : 2h 8mn
Overall bit rate : 1 515 Kbps
Movie name : Sumerechniy samuray
Genre : Historical
Original source form/Name : Movie
Comment : Abbissinskiy for Lexy Nelson

Video
ID : 0
Format : MPEG-4 Visual
Format profile : Simple@L1
Format settings, BVOP : No
Format settings, QPel : No
Format settings, GMC : No warppoints
Format settings, Matrix : Default (H.263)
Codec ID : DIVX
Codec ID/Info : Project Mayo
Codec ID/Hint : DivX 4
Duration : 2h 8mn
Source duration : 2h 8mn
Bit rate : 1 200 Kbps
Width : 720 pixels
Height : 576 pixels
Display aspect ratio : 16:10
Frame rate : 25.000 fps
Standard : PAL
Color space : YUV
Chroma subsampling : 4:2:0
Bit depth : 8 bits
Scan type : Progressive
Compression mode : Lossy
Bits/(Pixel*Frame) : 0.116
Stream size : 1.08 GiB (79%)
Writing library : avc2.0.11.1110

Audio
ID : 1
Format : MPEG Audio
Format version : Version 1
Format profile : Layer 3
Mode : Joint stereo
Mode extension : MS Stereo
Codec ID : 55
Codec ID/Hint : MP3
Duration : 2h 8mn
Source duration : 2h 8mn
Bit rate mode : Constant
Bit rate : 128 Kbps
Channel(s) : 2 channels
Sampling rate : 48.0 KHz
Compression mode : Lossy
Stream size : 118 MiB (8%)
Alignment : Aligned on interleaves
Interleave, duration : 24 ms (0.60 video frame)
info [Профиль]  [ЛС] 

post 29-Янв-2015 12:53 (спустя 5 часов) [-]0[+]

Топик был перенесен из форума Анонсы в форум Азиатское кино | Rips

BZzz
 

DeusNeko

Пол: Пол:Муж

Стаж: 7 лет 2 месяца

Сообщений: 1381

Предупреждений: 1

Россия
Рейтинг

post 29-Янв-2015 18:02 (спустя 10 часов) [-]0[+]

[Цитировать] 

Два одинаковых скрина.
Как кино?

_________________
Matrix Mini-I Pro -> Questyle CMA800R -> Sennheiser HD 280/PSB M4U 1/Beyerdynamic DT 770 Pro/Beyerdynamic T90/HiFiMAN HE-400
info [Профиль]  [ЛС] 

specialone802

Стаж: 2 года 11 месяцев

Сообщений: 2

Рейтинг

post 29-Янв-2015 21:46 (спустя 3 часа) [-]-1[+]

[Цитировать] 

Цитата:

Как кино?
Смотрел давно, фильм произвел сильное впечатление. Хорошее кино со смыслом.
info [Профиль]  [ЛС] 

Evgenzlo

Пол: Пол:Муж

Стаж: 1 год 11 месяцев

Сообщений: 14

Россия
Рейтинг

post 29-Янв-2015 22:02 (спустя 16 минут) [-]0[+]

[Цитировать] 

Отличное кино! Слезы, слюни, трагедия... близкие для понимания русской душой, но с японскими особенностями.
Похож на старые (90-стых и ниже) наших фильмов.
info [Профиль]  [ЛС] 

DeusNeko

Пол: Пол:Муж

Стаж: 7 лет 2 месяца

Сообщений: 1381

Предупреждений: 1

Россия
Рейтинг

post 30-Янв-2015 02:41 (спустя 4 часа) [-]0[+]

[Цитировать] 

Заинтересовали, но качество тут совсем никак. Придётся качать из другого места.

_________________
Matrix Mini-I Pro -> Questyle CMA800R -> Sennheiser HD 280/PSB M4U 1/Beyerdynamic DT 770 Pro/Beyerdynamic T90/HiFiMAN HE-400
info [Профиль]  [ЛС] 
Показать сообщения:    
Ответить на тему

Текущее время: 11-Дек 04:22

Часовой пояс: GMT + 4



Вы не можете начинать темы
Вы не можете отвечать на сообщения
Вы не можете редактировать свои сообщения
Вы не можете удалять свои сообщения
Вы не можете голосовать в опросах
Вы не можете прикреплять файлы к сообщениям
Вы не можете скачивать файлы