Ошибка

Астерикс: Земля Богов / Asterix: Le domaine des dieux (Луис Клиши, Александр Астье) [2014, мультфильм, приключения, фэнтези, комедия, BDRip 720p]

Ответить на тему
 
Автор Сообщение

BZzz

Пол: Пол:Муж

Стаж: 5 лет 1 месяц

Сообщений: 3647

Россия
Рейтинг

post 28-Янв-2015 20:05 4[+]

[Цитировать] 

Астерикс: Земля Богов / Asterix: Le domaine des dieux
«Самый громкий! Самый остроумный! Самый увлекательный!»




Год выпуска: 2014
Страна: Франция
Жанр: мультфильм, приключения, фэнтези, комедия
Продолжительность: 01:25:34
Перевод: Профессиональный (дублированный)[лицензия]

Режиссер: Луис Клиши, Александр Астье

В ролях: Роже Карель (Roger Carel), Лоран Дойч (Lorànt Deutsch), Лоран Лафитт (Laurent Lafitte (в титрах: Laurent Lafitte de la Comédie Française)), Александр Астье (Alexandre Astier), Ален Шаба (Alain Chabat), Эли Семун (Elie Semoun), Жеральдин Накаш (Géraldine Nakache), Артюс де Пенгерн (Artus de Penguern)

Описание: Астерикс и его лучший друг Обеликс продолжают свою многолетнюю борьбу с Цезарем, который хочет наконец-то расправиться с неукротимыми галлами. Вокруг деревни Астерикса Цезарь приказывает построить новый Рим — Землю Богов. В галльской деревне хаос и смятение. Но Астерикс и Обеликс не сдаются!

Сборы в России: $781 087



Качество: BDRip 720p
Формат: MKV
Видео кодек: AVC
Аудио кодек: DTS
Видео: 1280х720 (16:9), 23.976 fps, Main@L4.1, 4 004 Kbps
Аудио #1: DTS, 1510 Kbps, 48.0 KHz, 6 ch
> Первый мультфильм про Астерикса и Обеликса сделанный в формате 3D.
Format : Matroska
Format version : Version 2
File size : 3.36 GiB
Duration : 1h 25mn
Overall bit rate : 5 625 Kbps
Encoded date : UTC 2015-02-05 23:46:48
Writing application : mkvmerge v7.5.0 ('Glass Culture') 64bit built on Jan 4 2015 16:48:44
Writing library : libebml v1.3.1 + libmatroska v1.4.2
DURATION : 01:25:34.678000000
NUMBER_OF_FRAMES : 481376
NUMBER_OF_BYTES : 968528512
_STATISTICS_WRITING_APP : mkvmerge v7.5.0 ('Glass Culture') 64bit built on Jan 4 2015 16:48:44
_STATISTICS_WRITING_DATE_UTC : 2015-02-05 23:46:48
_STATISTICS_TAGS : BPS DURATION NUMBER_OF_FRAMES NUMBER_OF_BYTES

Video
ID : 1
Format : AVC
Format/Info : Advanced Video Codec
Format profile : High@L4.1
Format settings, CABAC : Yes
Format settings, ReFrames : 4 frames
Codec ID : V_MPEG4/ISO/AVC
Duration : 1h 25mn
Bit rate : 4 004 Kbps
Width : 1 280 pixels
Height : 720 pixels
Display aspect ratio : 16:9
Frame rate mode : Constant
Frame rate : 23.976 fps
Color space : YUV
Chroma subsampling : 4:2:0
Bit depth : 8 bits
Scan type : Progressive
Bits/(Pixel*Frame) : 0.181
Stream size : 2.39 GiB (71%)
Writing library : x264 core 144 r2525 40bb568
Encoding settings : cabac=1 / ref=1 / deblock=1:0:0 / analyse=0x3:0x113 / me=dia / subme=2 / psy=1 / psy_rd=1.00:0.00 / mixed_ref=0 / me_range=16 / chroma_me=1 / trellis=0 / 8x8dct=1 / cqm=0 / deadzone=21,11 / fast_pskip=1 / chroma_qp_offset=-2 / threads=12 / lookahead_threads=4 / sliced_threads=0 / nr=0 / decimate=1 / interlaced=0 / bluray_compat=0 / constrained_intra=0 / bframes=3 / b_pyramid=2 / b_adapt=1 / b_bias=0 / direct=1 / weightb=1 / open_gop=0 / weightp=1 / keyint=240 / keyint_min=23 / scenecut=40 / intra_refresh=0 / rc=cqp / mbtree=0 / qp=16 / ip_ratio=1.40 / pb_ratio=1.30 / aq=0
Language : English
Default : Yes
Forced : No
DURATION : 01:25:34.672000000
NUMBER_OF_FRAMES : 123109
NUMBER_OF_BYTES : 2640299173
_STATISTICS_WRITING_APP : mkvmerge v7.5.0 ('Glass Culture') 64bit built on Jan 4 2015 16:48:44
_STATISTICS_WRITING_DATE_UTC : 2015-02-05 23:46:48
_STATISTICS_TAGS : BPS DURATION NUMBER_OF_FRAMES NUMBER_OF_BYTES

Audio
ID : 2
Format : DTS
Format/Info : Digital Theater Systems
Mode : 16
Format settings, Endianness : Big
Codec ID : A_DTS
Duration : 1h 25mn
Bit rate mode : Constant
Bit rate : 1 509 Kbps
Channel(s) : 6 channels
Channel positions : Front: L C R, Side: L R, LFE
Sampling rate : 48.0 KHz
Bit depth : 24 bits
Compression mode : Lossy
Stream size : 924 MiB (27%)
Language : Russian
Default : Yes
Forced : No
info [Профиль]  [ЛС] 

AlienHouse6032

Пол: Пол:Муж

Стаж: 3 года 7 месяцев

Сообщений: 1116

Предупреждений: 4

Канада
Рейтинг

post 29-Янв-2015 00:34 (спустя 4 часа) [-]2[+]

[Цитировать] 

Цитата:

«Самый громкий! Самый остроумный! Самый увлекательный!»
8/10 ...
info [Профиль]  [ЛС] 

Valington

Пол: Пол:Муж

Стаж: 7 лет 3 месяца

Сообщений: 522

Исландия
Рейтинг

post 29-Янв-2015 04:26 (спустя 3 часа) [-]2[+]

[Цитировать] 

эхх,мне больше старые астериксы нравились,те которые до 90-х были.

_________________
Win 10 Pro 64x, intel i5-3470 3.20GHz, 8GB RAM, Ati Radeon HD 6950 2GB + CrossFire Ati Radeon HD 6950 1GB (8х\8х)
info [Профиль]  [ЛС] 

BZzz

Пол: Пол:Муж

Стаж: 5 лет 1 месяц

Сообщений: 3647

Россия
Рейтинг

post 06-Фев-2015 11:56 (спустя 8 дней) [-]0[+]

[Цитировать] 

 !  BZzz:
...лицензия

_________________
info [Профиль]  [ЛС] 

Drgar

Пол: Пол:Муж

Стаж: 7 лет 8 месяцев

Сообщений: 68

Россия
Рейтинг

post 13-Фев-2015 18:14 (спустя 7 дней) [-]0[+]

[Цитировать] 

раздайте плиззззззз
info [Профиль]  [ЛС] 

post 05-Фев-2016 23:55 (спустя 11 месяцев 20 дней) [-]0[+]

Топик был перенесен из форума Новинки 2014-2015 (Web-DL, DVD, HD DVD, Blu-ray, HD Rips) в форум Мультфильмы (HD Video)

LyaKich
 
Показать сообщения:    
Ответить на тему

Текущее время: 04-Дек 12:18

Часовой пояс: GMT + 4



Вы не можете начинать темы
Вы не можете отвечать на сообщения
Вы не можете редактировать свои сообщения
Вы не можете удалять свои сообщения
Вы не можете голосовать в опросах
Вы не можете прикреплять файлы к сообщениям
Вы не можете скачивать файлы