Ошибка

Война миров Z / World War Z (Марк Форстер) [2013, Ужасы, Фантастика, BDRip 1080р, 3D] [Горизонтальная анаморфная стереопара]

Ответить на тему
 
Автор Сообщение

vitaliy41

Пол: Пол:Муж

Стаж: 2 года

Сообщений: 14

Россия
Рейтинг

post 26-Янв-2015 14:56 0[+]

[Цитировать] 

Война миров Z / World War Z

Год выпуска: 2013
Страна: США
Жанр: 3D, Ужасы, Фантастика
Продолжительность: 01:56:02
Перевод: Профессиональный (полное дублирование)
Режиссер:
  • Марк Форстер
В ролях:
  • Брэд Питт, Мирей Инос, Стерлинг Джеринс, Эбигейл Харгров, Даниэла Картес, Фана Мокоэна, Пьерфранческо Фавино, Питер Капальди, Мориц Бляйбтрой, Рут Негга, Фабрицио Захари Гуидо, Джеймс Бэдж Дэйл, Дэвид Морс, Люди Букен, Элиес Габел, Мэттью Фокс, Майкл Дженн, Дэвид Эндрюс, Джон Гордон Синклер, Грегори Фетусси, Джейн Элизабет Перри, Люси Расселл, Марк Холден, Тим Беррингтон

Описание: Сотрудник ООН Гари Лейн наперегонки со временем пытается остановить заражение, способное полностью истребить человечество.

Горизонтальная анаморфная стереопара. Для просмотра этого фильма в 3D формате необходимо соответствующее оборудование. Телевизоры с поддержкой 3D формата.
Театральная версия! Видеоряд от BluRayHunter
.


General
Unique ID : 199478336720321775858287380667735921482 (0x961221546F4EE15087AEEA29343ED34A)
Complete name : D:\СКАЧЕННОЕ\водио скаченное\3D\Фильмы\World.War.Z 2013.3D.1080p.mkv
Format : Matroska
Format version : Version 3 / Version 2
File size : 10.6 GiB
Duration : 1h 56mn
Overall bit rate : 13.0 Mbps
Movie name : World War Z [Theatrical cut] (2013) - Release for HDCLUB
Encoded date : UTC 2013-09-13 16:53:47
Writing application : mkvmerge v6.3.0 ('You can't stop me!') built on Jun 28 2013 20:09:41
Writing library : libebml v1.3.0 + libmatroska v1.4.0
Attachment : Yes / Yes

Video
ID : 1
Format : AVC
Format/Info : Advanced Video Codec
Format profile : High@L4.1
MultiView_Count : 2
MultiView_Layout : Side by Side (left eye first)
Format settings, CABAC : Yes
Format settings, ReFrames : 4 frames
Codec ID : V_MPEG4/ISO/AVC
Duration : 1h 56mn
Bit rate : 10 000 Kbps
Width : 1 920 pixels
Height : 1 080 pixels
Display aspect ratio : 16:9
Frame rate : 23.976 fps
Color space : YUV
Chroma subsampling : 4:2:0
Bit depth : 8 bits
Scan type : Progressive
Bits/(Pixel*Frame) : 0.201
Stream size : 7.89 GiB (75%)
Title : 3D Half Side by Side, Left first
Writing library : x264 core 130 r2273 b3065e6
Encoding settings : cabac=1 / ref=4 / deblock=1:-3:-3 / analyse=0x3:0x113 / me=umh / subme=10 / psy=1 / psy_rd=1.05:0.10 / mixed_ref=1 / me_range=48 / chroma_me=1 / trellis=2 / 8x8dct=1 / cqm=0 / deadzone=21,11 / fast_pskip=0 / chroma_qp_offset=-2 / threads=18 / lookahead_threads=1 / sliced_threads=0 / nr=0 / decimate=1 / interlaced=0 / bluray_compat=0 / constrained_intra=0 / bframes=6 / b_pyramid=2 / b_adapt=2 / b_bias=0 / direct=3 / weightb=1 / open_gop=0 / weightp=2 / keyint=250 / keyint_min=23 / scenecut=40 / intra_refresh=0 / rc_lookahead=40 / rc=2pass / mbtree=0 / bitrate=10000 / ratetol=2.0 / qcomp=0.70 / qpmin=0 / qpmax=69 / qpstep=4 / cplxblur=20.0 / qblur=0.5 / vbv_maxrate=35000 / vbv_bufsize=30000 / nal_hrd=none / ip_ratio=1.40 / pb_ratio=1.30 / aq=2:1.00
Default : Yes
Forced : No

Audio #1
ID : 2
Format : DTS
Format/Info : Digital Theater Systems
Codec ID : A_DTS
Duration : 1h 56mn
Bit rate mode : Constant
Bit rate : 1 510 Kbps
Channel(s) : 6 channels
Channel positions : Front: L C R, Side: L R, LFE
Sampling rate : 48.0 KHz
Bit depth : 24 bits
Compression mode : Lossy
Stream size : 1.22 GiB (12%)
Title : DTS 5.1 @ 1536 kbps - DUB
Language : Russian
Default : Yes
Forced : No

Audio #2
ID : 3
Format : DTS
Format/Info : Digital Theater Systems
Codec ID : A_DTS
Duration : 1h 56mn
Bit rate mode : Constant
Bit rate : 1 510 Kbps
Channel(s) : 6 channels
Channel positions : Front: L C R, Side: L R, LFE
Sampling rate : 48.0 KHz
Bit depth : 24 bits
Compression mode : Lossy
Stream size : 1.22 GiB (12%)
Language : English
Default : No
Forced : No

Menu
00:00:00.000 : :1 - 0:00:00
00:05:05.180 : :2 - 0:05:05
00:13:04.659 : :3 - 0:13:04
00:20:31.188 : :4 - 0:20:31
00:27:02.579 : :5 - 0:27:02
00:32:38.039 : :6 - 0:32:38
00:39:35.331 : :7 - 0:39:35
00:49:06.152 : :8 - 0:49:06
00:55:22.027 : :9 - 0:55:22
01:01:41.239 : :10 - 1:01:41
01:09:18.654 : :11 - 1:09:18
01:17:03.035 : :12 - 1:17:03
01:22:09.842 : :13 - 1:22:09
01:27:51.558 : :14 - 1:27:51
01:36:41.587 : :15 - 1:36:41
01:45:14.099 : :16 - 1:45:14
01:48:46.645 : :17 - 1:48:46

Качество: BDRip 1080p
Формат: MKV
Видео кодек: V_MPEG4/ISO/AVC
Аудио кодек: A_DTS
Видео: MPEG-4 AVC, 10000 Кбит/с, 1920x1080 пикс., 23.976 кадр/с
Аудио#1: DTS, 6 ch,1510 Кбит/с, 48,0 КГц (Русский)
Аудио#2: DTS, 6 ch, 1510 Кбит/с, 48,0 КГц (Английский)
info [Профиль]  [ЛС] 

post 26-Янв-2015 19:05 (спустя 4 часа) [-]0[+]

Топик был перенесен из форума Анонсы в форум 3D

BZzz
 

Picodelio

Стаж: 6 лет 9 месяцев

Сообщений: 63

Рейтинг

post 27-Янв-2015 19:13 (спустя 1 день 4 часа) [-]0[+]

[Цитировать] 

откажитесь от пар в пользу BD3D ISO
!!!!!
вы смотрите шлак
info [Профиль]  [ЛС] 

Tpecca

Пол: Пол:Муж

Стаж: 7 лет 8 месяцев

Сообщений: 300

Россия
Рейтинг

post 27-Янв-2015 20:05 (спустя 52 минуты) [-]1[+]

[Цитировать] 

бд исо это круто конечно но весит больше, с флешки не посмотришь.
сам конечно с компа смотрю, но оооочень многие именно с флешки/винта смотрят.
info [Профиль]  [ЛС] 

vitaliy41

Пол: Пол:Муж

Стаж: 2 года

Сообщений: 14

Россия
Рейтинг

post 28-Янв-2015 10:47 (спустя 14 часов) [-]0[+]

[Цитировать] 

я смотрю с выносного жесткого диска. Телик лыжа. Все показывает.

_________________
Я не волшебник,Я только учусь!!!!!Кавчег построил любитель,а профессионал титаник
info [Профиль]  [ЛС] 
Показать сообщения:    
Ответить на тему

Текущее время: 03-Дек 02:24

Часовой пояс: GMT + 4



Вы не можете начинать темы
Вы не можете отвечать на сообщения
Вы не можете редактировать свои сообщения
Вы не можете удалять свои сообщения
Вы не можете голосовать в опросах
Вы не можете прикреплять файлы к сообщениям
Вы не можете скачивать файлы