Ошибка

Пираты Карибского моря:На странных берегах / Pirates of the Caribbean:On Stranger Tides (Роб Маршалл) [2011,Приключения, Фэнтези, BDRip 1080р, 3D] [Горизонтальная анаморфная стереопара]

Ответить на тему
 
Автор Сообщение

vitaliy41

Пол: Пол:Муж

Стаж: 2 года 5 месяцев

Сообщений: 14

Россия
Рейтинг

post 26-Янв-2015 14:08 0[+]

[Цитировать] 

Пираты Карибского моря: На странных берегах /Pirates of the Caribbean: On Stranger Tides

Год выпуска: 2011
Страна: США
Жанр: 3D, Приключения, Фэнтези
Продолжительность: 02:16:23
Перевод: Профессиональный (полное дублирование)

Режиссер:
  • Роб Маршалл
В ролях:
  • Джонни Депп, Пенелопа Крус, Джеффри Раш, Иэн МакШейн, Кевин МакНэлли, Стивен Грэм, Сэм Клафлин, Астрид Берже-Фрисби, Кит Ричардс, Ричард Гриффитс


Описание: В новой истории о поисках истины, предательстве, вечной молодости и смертельной опасности капитану Джеку Воробью предстоит столкнуться с женщиной из своего прошлого Анжеликой. До самого конца не будет понятно, связывает ли их настоящая любовь, или же Анжелика искусно притворяется, чтобы вместе с Джеком добраться до таинственного источника вечной молодости.

Она силой принуждает капитана Джека Воробья взойти на корабль «Месть Королевы Анны», которым управляет коварный злодей Черная Борода. Наш герой оказывается в ситуации, когда он не знает, чего ему бояться больше - ужасного злодея или же свою давнюю подругу.

Текст #1UTF-8 Russian(forced)
Текст #2UTF-8 Russian(R5/BD)
Текст #3UTF-8 Russian(комментарии)
Текст #4UTF-8Ukrainian (forced)
Текст #5UTF-8Ukrainian (R5/BD)
Текст #6UTF-8Ukrainian (комментарии)
Текст #7UTF-8 English


Общее Уникальный идентификатор : 253121558438422430102086472524863186063 (0xBE6D705B87EF41C8BF1DEB4C17E5248F)
Полное имя : E:\СКАЧЕННОЕ\водио скаченное\Фильмы зоналенд\3D\Фильмы\Pirates of the Caribbean On Stranger Tides 3D HSBS.mkv
Формат : Matroska
Версия формата : Version 2
Размер файла : 12,9 Гбайт
Продолжительность : 2 ч. 16 м.
Общий поток : 13,5 Мбит/сек
Название фильма : Pirates of the Caribbean On Stranger Tides 3D HSBS (2011) - Release for HDCLUB
Дата кодирования : UTC 2011-09-28 09:36:01
Программа кодирования : mkvmerge v5.0.0 ('Die Wahre Liebe') built on Sep 25 2011 20:33:49
Библиотека кодирования : libebml v1.2.2 + libmatroska v1.3.0

Видео
Идентификатор : 1
Формат : AVC
Формат/Информация : Advanced Video Codec
Профиль формата : High@L4.1
Параметр CABAC формата : Да
Параметр ReFrames формата : 4 кадра
Идентификатор кодека : V_MPEG4/ISO/AVC
Продолжительность : 2 ч. 16 м.
Битрейт : 9735 Кбит/сек
Ширина : 1920 пикселей
Высота : 1080 пикселей
Соотношение сторон : 16:9
Режим частоты кадров : Постоянный
Частота кадров : 23,976 кадра/сек
Цветовое пространство : YUV
Субдискретизация насыщенности : 4:2:0
Битовая глубина : 8 бит
Тип развёртки : Прогрессивная
Бит/(Пиксели*Кадры) : 0.196
Размер потока : 9,28 Гбайт (72%)
Заголовок : Release for HDCLUB
Библиотека кодирования : x264 core 116 r2074 2641b9e
Настройки программы : cabac=1 / ref=4 / deblock=1:-3:-3 / analyse=0x3:0x113 / me=umh / subme=10 / psy=1 / psy_rd=1.00:0.05 / mixed_ref=0 / me_range=32 / chroma_me=1 / trellis=2 / 8x8dct=1 / cqm=0 / deadzone=21,11 / fast_pskip=0 / chroma_qp_offset=-3 / threads=12 / sliced_threads=0 / nr=0 / decimate=0 / interlaced=0 / bluray_compat=0 / constrained_intra=0 / bframes=3 / b_pyramid=2 / b_adapt=2 / b_bias=0 / direct=3 / weightb=1 / open_gop=0 / weightp=2 / keyint=250 / keyint_min=23 / scenecut=40 / intra_refresh=0 / rc_lookahead=60 / rc=crf / mbtree=1 / crf=17.0 / qcomp=0.60 / qpmin=0 / qpmax=69 / qpstep=4 / ip_ratio=1.40 / aq=1:0.70
Язык : English
Default : Да
Forced : Нет

Аудио #1
Идентификатор : 2
Формат : AC-3
Формат/Информация : Audio Coding 3
Расширение режима : CM (complete main)
Параметр Endianness формата : Big
Идентификатор кодека : A_AC3
Продолжительность : 2 ч. 16 м.
Вид битрейта : Постоянный
Битрейт : 640 Кбит/сек
Каналы : 6 каналов
Расположение каналов : Front: L C R, Side: L R, LFE
Частота : 48,0 КГц
Битовая глубина : 16 бит
Метод сжатия : С потерями
Размер потока : 624 Мбайт (5%)
Заголовок : |Дубляж, Blu-ray|
Язык : Russian
Default : Да
Forced : Нет

Аудио #2
Идентификатор : 3
Формат : AC-3
Формат/Информация : Audio Coding 3
Расширение режима : CM (complete main)
Параметр Endianness формата : Big
Идентификатор кодека : A_AC3
Продолжительность : 2 ч. 16 м.
Вид битрейта : Постоянный
Битрейт : 640 Кбит/сек
Каналы : 6 каналов
Расположение каналов : Front: L C R, Side: L R, LFE
Частота : 48,0 КГц
Битовая глубина : 16 бит
Метод сжатия : С потерями
Размер потока : 624 Мбайт (5%)
Заголовок : |Дубляж, Blu-ray|
Язык : Ukrainian
Default : Нет
Forced : Нет

Аудио #3
Идентификатор : 4
Формат : DTS
Формат/Информация : Digital Theater Systems
Профиль формата : HRA / Core
Режим : 16
Параметр Endianness формата : Big
Идентификатор кодека : A_DTS
Продолжительность : 2 ч. 16 м.
Вид битрейта : Постоянный
Битрейт : 2046 Кбит/сек / 1509 Кбит/сек
Каналы : 8 каналов / 6 каналов
Расположение каналов : Front: L C R, Side: L R, Back: L R, LFE / Front: L C R, Side: L R, LFE
Частота : 48,0 КГц
Битовая глубина : 24 бит
Метод сжатия : С потерями
Размер потока : 1,95 Гбайт (15%)
Заголовок : |English|
Язык : English
Default : Нет
Forced : Нет

Аудио #4
Идентификатор : 5
Формат : AC-3
Формат/Информация : Audio Coding 3
Расширение режима : CM (complete main)
Параметр Endianness формата : Big
Идентификатор кодека : A_AC3
Продолжительность : 2 ч. 16 м.
Вид битрейта : Постоянный
Битрейт : 192 Кбит/сек
Каналы : 2 канала
Расположение каналов : Front: L R
Частота : 48,0 КГц
Битовая глубина : 16 бит
Метод сжатия : С потерями
Размер потока : 187 Мбайт (1%)
Заголовок : |Commentary with Rob Marshall and John DeLuca|
Язык : English
Default : Нет
Forced : Нет

Текст #1
Идентификатор : 6
Формат : UTF-8
Идентификатор кодека : S_TEXT/UTF8
Идентификатор кодека/Информация : UTF-8 Plain Text
Заголовок : Russian (forcedt)
Язык : Russian
Default : Да
Forced : Нет

Текст #2
Идентификатор : 7
Формат : UTF-8
Идентификатор кодека : S_TEXT/UTF8
Идентификатор кодека/Информация : UTF-8 Plain Text
Заголовок : Russian (R5/BD)
Язык : Russian
Default : Нет
Forced : Нет

Текст #3
Идентификатор : 8
Формат : UTF-8
Идентификатор кодека : S_TEXT/UTF8
Идентификатор кодека/Информация : UTF-8 Plain Text
Заголовок : Russian (комментарии)
Язык : Russian
Default : Нет
Forced : Нет

Текст #4
Идентификатор : 9
Формат : UTF-8
Идентификатор кодека : S_TEXT/UTF8
Идентификатор кодека/Информация : UTF-8 Plain Text
Заголовок : Ukrainian (forced)
Язык : Ukrainian
Default : Нет
Forced : Нет

Текст #5
Идентификатор : 10
Формат : UTF-8
Идентификатор кодека : S_TEXT/UTF8
Идентификатор кодека/Информация : UTF-8 Plain Text
Заголовок : Ukrainian (R5/BD)
Язык : Ukrainian
Default : Нет
Forced : Нет

Текст #6
Идентификатор : 11
Формат : UTF-8
Идентификатор кодека : S_TEXT/UTF8
Идентификатор кодека/Информация : UTF-8 Plain Text
Заголовок : Ukrainian (комментарии)
Язык : Ukrainian
Default : Нет
Forced : Нет

Текст #7
Идентификатор : 12
Формат : UTF-8
Идентификатор кодека : S_TEXT/UTF8
Идентификатор кодека/Информация : UTF-8 Plain Text
Заголовок : English
Язык : English
Default : Нет
Forced : Нет

Меню
00:00:00.000 : en:Chapter 00
00:03:34.172 : en:Chapter 01
00:08:46.776 : en:Chapter 02
00:15:56.080 : en:Chapter 03
00:18:34.154 : en:Chapter 04
00:21:15.315 : en:Chapter 05
00:30:05.512 : en:Chapter 06
00:36:56.756 : en:Chapter 07
00:42:05.356 : en:Chapter 08
00:48:20.022 : en:Chapter 09
00:53:26.077 : en:Chapter 10
00:55:42.964 : en:Chapter 11
00:57:52.844 : en:Chapter 12
01:00:47.477 : en:Chapter 13
01:08:22.223 : en:Chapter 14
01:11:41.338 : en:Chapter 15
01:13:03.170 : en:Chapter 16
01:14:16.743 : en:Chapter 17
01:23:19.995 : en:Chapter 18
01:26:49.621 : en:Chapter 19
01:30:16.494 : en:Chapter 20
01:35:43.738 : en:Chapter 21
01:40:57.926 : en:Chapter 22
01:43:07.556 : en:Chapter 23
01:44:51.660 : en:Chapter 24
01:48:53.610 : en:Chapter 25
01:57:41.471 : en:Chapter 26
02:02:21.375 : en:Chapter 27
02:05:51.460 : en:Chapter 28
02:07:26.805 : en:Chapter 29

Качество: BDRip
Формат: AVC
Формат3D: Half SideBySide / Горизонтальная анаморфная стереопара
Видео кодек: х264
Аудио кодек: AC3
Видео: х264, 9735 kb/s, 1920x1080, 23.976 fps,
Аудио1: Russian AC3, 640 kb/s (6Ch)-Дубляж(),Blu-ray
Аудио 2 Ukrainian AC3, 640 kb/s (6Ch)-Дубляж(),Blu-ray
Аудио 3 EnglishDTS,,2046 Кбит/сек / 1509 Кбит/сек,8 каналов / 6 каналов,48,0 КГц
Аудио 4 English,AC-3, 192 Кбит/сек,2 канала,48,0 КГц
info [Профиль]  [ЛС] 

post 26-Янв-2015 19:18 (спустя 5 часов) [-]0[+]

Топик был перенесен из форума Анонсы в форум 3D

BZzz
 
Показать сообщения:    
Ответить на тему

Текущее время: 26-Апр 23:45

Часовой пояс: GMT + 4



Вы не можете начинать темы
Вы не можете отвечать на сообщения
Вы не можете редактировать свои сообщения
Вы не можете удалять свои сообщения
Вы не можете голосовать в опросах
Вы не можете прикреплять файлы к сообщениям
Вы не можете скачивать файлы