Ошибка

До окончания фрилича осталось:


Технологии древних цивилизаций. Военное дело /Technology of ancient civilizations. Warfare(Шон Барретт)[2011, История, Война, Научно-популярная, SATRip]

Ответить на тему
 
Автор Сообщение

vitaliy41

Пол: Пол:Муж

Стаж: 2 года 1 месяц

Сообщений: 14

Россия
Рейтинг

post 23-Янв-2015 17:28 0[+]

[Цитировать] 

Технологии древних цивилизаций. Военное дело /Technology of ancient civilizations. Warfare

Год выпуска: 2011
Страна: Великобритания
Жанр: История, Война, Научно-популярная
Продолжительность: 00:50:16
Перевод: Профессиональный (одноголосый)
Режиссер:
  • Шон Барретт

Описание: Нам, живущим в эпоху высоких технологий, может показаться, что наши предки использовали на войне лишь примитивное оружие. Но более двух тысяч лет назад уже применялись прообразы тех машин, что можно увидеть на полях сражений и в наши дни.
Древние империи создавались при помощи огнеметов, метательных машин, огромных осадных орудий и даже скорострельных пушек.
Вы поразитесь тому, как продвинулись в этой сфере античные инженеры!

General
Complete name : D:\СКАЧЕННОЕ\разное\Технологии древних цивилизаций..avi
Format : AVI
Format/Info : Audio Video Interleave
File size : 585 MiB
Duration : 50mn 16s
Overall bit rate : 1 627 Kbps
Writing application : MEncoder SVN-r30881(20100311-gcc4.3.3)
Writing library : MPlayer

Video
ID : 0
Format : MPEG-4 Visual
Format profile : Advanced Simple@L5
Format settings, BVOP : 2
Format settings, QPel : No
Format settings, GMC : No warppoints
Format settings, Matrix : Default (H.263)
Codec ID : XVID
Codec ID/Hint : XviD
Duration : 50mn 16s
Bit rate : 1 487 Kbps
Width : 640 pixels
Height : 480 pixels
Display aspect ratio : 4:3
Frame rate : 25.000 fps
Color space : YUV
Chroma subsampling : 4:2:0
Bit depth : 8 bits
Scan type : Progressive
Compression mode : Lossy
Bits/(Pixel*Frame) : 0.194
Stream size : 535 MiB (91%)
Writing library : XviD 1.2.1 (UTC 2008-12-04)

Audio
ID : 1
Format : MPEG Audio
Format version : Version 1
Format profile : Layer 3
Mode : Joint stereo
Mode extension : MS Stereo
Codec ID : 55
Codec ID/Hint : MP3
Duration : 50mn 16s
Bit rate mode : Constant
Bit rate : 128 Kbps
Channel(s) : 2 channels
Sampling rate : 44.1 KHz
Compression mode : Lossy
Delay relative to video : 40ms
Stream size : 46.0 MiB (8%)
Alignment : Aligned on interleaves
Interleave, duration : 26 ms (0.65 video frame)
Interleave, preload duration : 522 ms

Качество: SATRip
Формат: AVI
Видео кодек:Xvid
Аудио кодек:MP3
Видео: Xvid , 1486 kbps , 640x480 , 25.0fps
Аудио: MP3, 2ch. 128 kb/s , 48.000KHz
info [Профиль]  [ЛС] 

post 23-Янв-2015 18:20 (спустя 51 минута) [-]0[+]

Топик был перенесен из форума Анонсы в форум Документальные фильмы и телепередачи

BZzz
 

RoyTarg

Пол: Пол:Муж

Стаж: 4 года 1 месяц

Сообщений: 32

Россия
Рейтинг

post 23-Янв-2015 19:28 (спустя 1 час 59 минут) [-]0[+]

[Цитировать] 

хе) ну, поглядим, как античные инженеры создавали BFG)

_________________
: ) : Намастэ!
info [Профиль]  [ЛС] 

BAHO21

Стаж: 3 года 9 месяцев

Сообщений: 72

Рейтинг

post 24-Янв-2015 04:13 (спустя 8 часов) [-]1[+]

[Цитировать] 

Любопытно... Гляну пожалуй Улыбаюсь
info [Профиль]  [ЛС] 

vitaliy41

Пол: Пол:Муж

Стаж: 2 года 1 месяц

Сообщений: 14

Россия
Рейтинг

post 25-Янв-2015 11:16 (спустя 1 день 7 часов) [-]0[+]

[Цитировать] 

получилось kolob_111 Попробую еще раздать. Есть много интересного. kolob_150

_________________
Я не волшебник,Я только учусь!!!!!Кавчег построил любитель,а профессионал титаник
info [Профиль]  [ЛС] 
Показать сообщения:    
Ответить на тему

Текущее время: 10-Дек 01:24

Часовой пояс: GMT + 4



Вы не можете начинать темы
Вы не можете отвечать на сообщения
Вы не можете редактировать свои сообщения
Вы не можете удалять свои сообщения
Вы не можете голосовать в опросах
Вы не можете прикреплять файлы к сообщениям
Вы не можете скачивать файлы