Ошибка

Возвращение на Родину / Swades: We, the People [2004, драма, DVDrip]

Ответить на тему
 
Автор Сообщение

Evgenzlo

Пол: Пол:Муж

Стаж: 1 год 11 месяцев

Сообщений: 14

Россия
Рейтинг

post 15-Янв-2015 23:26 0[+]

[Цитировать] 

Возвращение на Родину / Swades: We, the People

Год выпуска: 2004
Страна: Индия
Жанр: Драма
Продолжительность: 03:07:18
Перевод: двухголосный закадровый
Режиссер:
  • Ашутош Говарикер
В ролях:
  • Шахрукх Кхан, Гаятри Джоши, Раджеш Вивек, Дайя Шанкар Пандеу, Макранд Дешпандэ, Лекх Тандон, Рахул Вохра, Рич Петрелли

Описание: Шахрукх Кхан играет инженера Мохана Бхаргава, приехавшего из сельской Индии в США. На родине, в деревне Чараннпур, у него осталась возлюбленная, подруга детства — школьная учительница Гита. Он работает в исследовательском центре NASA в группе, контролирующей запуск спутника GPM.

Качество: DVDRip
Формат: AVI
Видео кодек: XviD
Аудио кодек: AC-3
Видео: 720x288 , 29.970 fps, 1 068 Kbps
Аудио: 48.0 KHz, 448 Kbps, 6 channels
Сэмпл: >ТыК<

http://imdb.snick.ru/ratefor/02/tt0367110.png 
General
Complete name : \Vozvrashenie.Na.Rodinu.2004.DivX.DVDRip.avi
Format : AVI
Format/Info : Audio Video Interleave
Format profile : OpenDML
File size : 2.06 GiB
Duration : 3h 7mn
Overall bit rate : 1 571 Kbps
Writing application : VirtualDubMod 1.5.4.1 (build 2178/release)
Writing library : VirtualDubMod build 2178/release

Video
ID : 0
Format : MPEG-4 Visual
Format settings, BVOP : 1
Format settings, QPel : No
Format settings, GMC : No warppoints
Format settings, Matrix : Default (H.263)
Muxing mode : Packed bitstream
Codec ID : DX50
Codec ID/Hint : DivX 5
Duration : 3h 7mn
Bit rate : 1 068 Kbps
Width : 720 pixels
Height : 288 pixels
Display aspect ratio : 2.500
Frame rate : 29.970 fps
Color space : YUV
Chroma subsampling : 4:2:0
Bit depth : 8 bits
Scan type : Progressive
Compression mode : Lossy
Bits/(Pixel*Frame) : 0.172
Stream size : 1.40 GiB (68%)
Writing library : DivX 6.1.1 (UTC 2006-02-01)

Audio
ID : 1
Format : AC-3
Format/Info : Audio Coding 3
Mode extension : CM (complete main)
Format settings, Endianness : Big
Codec ID : 2000
Duration : 3h 7mn
Bit rate mode : Constant
Bit rate : 448 Kbps
Channel(s) : 6 channels
Channel positions : Front: L C R, Side: L R, LFE
Sampling rate : 48.0 KHz
Bit depth : 16 bits
Compression mode : Lossy
Delay relative to video : 3s 470ms
Stream size : 600 MiB (29%)
Alignment : Split accross interleaves
Interleave, duration : 96 ms (2.88 video frames)
Interleave, preload duratio : 96 ms
Language : Russian
info [Профиль]  [ЛС] 

post 16-Янв-2015 02:49 (спустя 3 часа) [-]0[+]

Топик был перенесен из форума Анонсы в форум Индийское кино | Rips

BZzz
 

dotachin

Стаж: 6 лет 4 месяца

Сообщений: 300

Рейтинг

post 16-Янв-2015 12:49 (спустя 13 часов) [-]2[+]

[Цитировать] 

IMDB 8.4? Опять индусы рейтинг набили?
info [Профиль]  [ЛС] 
Показать сообщения:    
Ответить на тему

Текущее время: 11-Дек 02:31

Часовой пояс: GMT + 4



Вы не можете начинать темы
Вы не можете отвечать на сообщения
Вы не можете редактировать свои сообщения
Вы не можете удалять свои сообщения
Вы не можете голосовать в опросах
Вы не можете прикреплять файлы к сообщениям
Вы не можете скачивать файлы