Ошибка

Касаясь пустоты / Touching the Void (Кевин МакДональд / Kevin Macdonald) [2003, Великобритания, США, документальный, драма, приключения, спорт, BDRemux 1080p] MVO (R5) + Sub Rus, Eng + Original Eng от R.G.TNClub

Ответить на тему
 
Автор Сообщение

R.G. TNClub

Стаж: 2 года 3 месяца

Сообщений: 515

Рейтинг

post 07-Янв-2015 19:08 1[+]

[Цитировать] 

Касаясь пустоты / Touching the Void
«The closer you are to death. The more you realize you are alive.»

Страна: Великобритания, США
Жанр: Драма, приключения, документальный, спорт, экранизация, реальные события
Год выпуска: 2003
Продолжительность: 01:46:22
Перевод:Профессиональный (многоголосый, закадровый) [DVD R5] - русский
Субтитры: русские , английские
Оригинальная дорожка: английский
Главы: есть

Режиссер: Кевин МакДональд
В ролях:Брендан Маккей, Николас Аарон, Ричард Хаукинг, Джо Симпсон, Саймон Йэтс, Олли Руалль

Описание: Фильм – экранизация бестселлера известного альпиниста Джо Симпсона - рассказывает одну из самых невероятных, реально происходивших историй из жизни альпинистов. В книге описывается восхождение Симпсона и его друга Саймона Йетса на одну из вершин перуанских Анд в 1985 году. Двое молодых амбициозных альпинистов решают покорить удаленный и опасный западный склон Сиула Гранде, высотой 7 тысяч метров. При спуске в плохую погоду Симпсон падает и ломает ногу. В борьбе за выживание молодые люди вынуждены ежеминутно принимать непростые решения. Симпсон и Йетс вместе возвращаются на место событий, чтобы поведать свою историю перед объективом камеры.
Фильм захватывает и заставляет задуматься. Премия имени Александра Корды за самый выдающийся британский фильм года, 2004 г.

Качество видео: BDRemux 1080p (by dabyg)
Формат видео: MKV

Видео: VC-1 / 20757 kbps / 1920x1080 / 23,976 fps / 16:9 / High Profile 4.1
Аудио:
  • Russian: 48 kHz/16-bit, DTS-HD HR 5.1, ~2046.00 kbps avg |Многоголосый закадровый, DVD R5|
  • English: 48 kHz/16-bit, DTS-HD HR 5.1, ~2046.00 kbps avg
Формат субтитров: softsub (SRT)

Раздача от &

Доп. информация: Дорога №1 получена микшированием выделеных голосов с центром декодированного DTS-HD MA оригинала.

Touching the Void (2003) Blu-ray 1080p VC-1 DTS-HD HR 5.1
Общее
Уникальный идентификатор : 244908307910517220173844753105686132404 (0xB83F9FD7974B25C295CD7EF6586876B4)
Полное имя : W:\Касаясь пустоты_ Touching the Void _2003_BDREMUX_by dabyg.mkv
Формат : Matroska
Версия формата : Version 4 / Version 2
Размер файла : 18,5 Гбайт
Продолжительность : 1 ч. 46 м.
Общий поток : 24,9 Мбит/сек
Дата кодирования : UTC 2015-01-07 12:26:30
Программа кодирования : mkvmerge v6.6.0 ('The Edge Of The In Between') built on Dec 1 2013 17:55:00
Библиотека кодирования : libebml v1.3.0 + libmatroska v1.4.1

Видео
Идентификатор : 1
Формат : VC-1
Профиль формата : Advanced@L3
Идентификатор кодека : V_MS/VFW/FOURCC / WVC1
Идентификатор кодека/Подсказка : Microsoft
Продолжительность : 1 ч. 46 м.
Битрейт : 20,3 Мбит/сек
Ширина : 1920 пикселей
Высота : 1080 пикселей
Соотношение сторон : 16:9
Режим частоты кадров : Постоянный
Частота кадров : 23,976 кадра/сек
Цветовое пространство : YUV
Субдискретизация насыщенности : 4:2:0
Битовая глубина : 8 бит
Тип развёртки : Прогрессивная
Метод сжатия : С потерями
Бит/(Пиксели*Кадры) : 0.408
Размер потока : 15,1 Гбайт (82%)
Default : Да
Forced : Нет

Аудио #1
Идентификатор : 2
Формат : DTS
Формат/Информация : Digital Theater Systems
Профиль формата : HRA / Core
Режим : 16
Параметр Endianness формата : Big
Идентификатор кодека : A_DTS
Продолжительность : 1 ч. 46 м.
Вид битрейта : Постоянный
Битрейт : 2046 Кбит/сек / 1509 Кбит/сек
Каналы : 6 каналов
Расположение каналов : Front: L C R, Side: L R, LFE
Частота : 48,0 КГц
Битовая глубина : 24 бит
Метод сжатия : С потерями
Задержка видео : 21 мс.
Размер потока : 1,52 Гбайт (8%)
Язык : Russian
Default : Да
Forced : Нет

Аудио #2
Идентификатор : 3
Формат : DTS
Формат/Информация : Digital Theater Systems
Профиль формата : HRA / Core
Режим : 16
Параметр Endianness формата : Big
Идентификатор кодека : A_DTS
Продолжительность : 1 ч. 46 м.
Вид битрейта : Постоянный
Битрейт : 2046 Кбит/сек / 1509 Кбит/сек
Каналы : 6 каналов
Расположение каналов : Front: L C R, Side: L R, LFE
Частота : 48,0 КГц
Битовая глубина : 24 бит
Метод сжатия : С потерями
Размер потока : 1,52 Гбайт (8%)
Язык : English
Default : Нет
Forced : Нет

Текст #1
Идентификатор : 4
Формат : UTF-8
Идентификатор кодека : S_TEXT/UTF8
Идентификатор кодека/Информация : UTF-8 Plain Text
Заголовок : Eng
Default : Да
Forced : Нет

Текст #2
Идентификатор : 5
Формат : UTF-8
Идентификатор кодека : S_TEXT/UTF8
Идентификатор кодека/Информация : UTF-8 Plain Text
Заголовок : Rus
Default : Нет
Forced : Нет

Код:

 

Информация о раздаче
При перезаливе указывайте, пож-та, автора рипов dabyg и R.G. TNClub, а также прикрепляйте лычку или баннер.
Пожалуйста, оставайтесь на раздаче как можно дольше!
Релиз специально для Tapochek.net
Все раздачи R.G.TNClub


info [Профиль]  [ЛС] 

post 07-Янв-2015 20:03 (спустя 55 минут) [-]0[+]

Топик был перенесен из форума Оформление раздач (R.G. TNClub) в форум Документальные фильмы и телепередачи

L
 

vista101012

Стаж: 7 лет 1 месяц

Сообщений: 34

Рейтинг

post 08-Янв-2015 01:02 (спустя 5 часов) [-]0[+]

[Цитировать] 

сделайте плиз размером гига 2 хоть. спасибо за раздачу!
info [Профиль]  [ЛС] 

JBar

Стаж: 6 лет 9 месяцев

Сообщений: 371

Рейтинг

post 08-Янв-2015 02:11 (спустя 1 час 9 минут) [-]-7[+]

[Цитировать] 

отсюда какой вывод? Хрена Ли Полез? Сидел бы дома, попивал коньячок, смотрел любимые фильмы....так нет же, адреналина захотелось kolob_134 Ну так на те, блжадь, адреналин kolob_160
info [Профиль]  [ЛС] 

SlepoyDvornik

Пол: Пол:Муж

Стаж: 6 лет 10 месяцев

Сообщений: 56

Германия
Рейтинг

post 08-Янв-2015 14:44 (спустя 12 часов) [-]0[+]

[Цитировать] 

Фильм отличный, один из лучших фильмов про альпинизм. Сюда бы добавить ещё фильм Нанга Парбат. Спасибо за качество раздачи.

_________________
info [Профиль]  [ЛС] 

dabyg

Пол: Пол:Муж

Стаж: 3 года 9 месяцев

Сообщений: 152

Россия
Рейтинг

post 08-Янв-2015 15:56 (спустя 1 час 12 минут) [-]0[+]

[Цитировать] 

vista101012,SlepoyDvornik не за что kolob_141 JBar,будет время сделаю kolob_111

_________________
Под самым красивым хвостом павлина скрывается самая обычная куриная жопа.
Так что меньше пафоса, господа.
info [Профиль]  [ЛС] 

Симьйон

Пол: Пол:Муж

Стаж: 7 лет 1 месяц

Сообщений: 1474

Россия
Рейтинг

post 08-Янв-2015 20:58 (спустя 5 часов) [-]0[+]

[Цитировать] 

Смотрел, и правда один из лучших фильмов про альпинизм, и одна из самых невероятных историй
info [Профиль]  [ЛС] 

Kaiser88

Стаж: 5 лет 5 месяцев

Сообщений: 98

СССР
Рейтинг

post 07-Июн-2015 09:34 (спустя 4 месяца 29 дней) [-]0[+]

[Цитировать] 

Прочитал название как "Кусаясь пустоты", на минуту где то залип, думал - а зачем кусать пустоту и вообще почему так происходит, что люди её кусают ?
info [Профиль]  [ЛС] 
Показать сообщения:    
Ответить на тему

Текущее время: 05-Дек 02:21

Часовой пояс: GMT + 4



Вы не можете начинать темы
Вы не можете отвечать на сообщения
Вы не можете редактировать свои сообщения
Вы не можете удалять свои сообщения
Вы не можете голосовать в опросах
Вы не можете прикреплять файлы к сообщениям
Вы не можете скачивать файлы