Ошибка

Новогодний фейерверк в Лондоне [2014-2015 г., Фейерверк, HDTVRip 1080p]

Ответить на тему
 
Автор Сообщение

CooL

Пол: Пол:Муж

Стаж: 6 лет 8 месяцев

Сообщений: 1235

СССР
Рейтинг

post 02-Янв-2015 16:57 1[+]

[Цитировать] 

Новогодний фейерверк

Лондон

Год выпуска: 2014-2015

Происхождение : Великобритания
Продолжительность: 00:13:50
Описание: Столица Великобритании подготовила к встрече 2015-го 15 тонн фейерверков. Их хватило чуть больше, чем на 10 минут. При этом, впервые в истории, за право полюбоваться новогодним огненным шоу зрителям пришлось заплатить по 10 фунтов стерлингов. Вы думаете, это многих остановило? Собралось более 100 тысяч человек! При этом билеты на смотровую площадку спекулянты перепродавали в интернете по 100 фунтов.


Автор рипа: DON
Качество: HDTVRip 1080p
Формат: MKV
Видео кодек: x264
Аудио кодек: MP2

Видео :MPEG-4 AVC, 1920x1080 (16:9), 50.000 fps, 29889 Kbps
Аудио : MP2 2.0 @ 256 Kbps
Видео
Идентификатор : 1
Формат : AVC
Формат/Информация : Advanced Video Codec
Профиль формата : High@L4.2
Параметр CABAC формата : Да
Параметр ReFrames формата : 4 кадра
Идентификатор кодека : V_MPEG4/ISO/AVC
Продолжительность : 13 м.
Битрейт : 29,3 Мбит/сек
Ширина : 1920 пикселей
Высота : 1080 пикселей
Соотношение сторон : 16:9
Режим частоты кадров : Постоянный
Частота кадров : 50,000 кадров/сек
Цветовое пространство : YUV
Субдискретизация насыщенности : 4:2:0
Битовая глубина : 8 бит
Тип развёртки : Прогрессивная
Бит/(Пиксели*Кадры) : 0.283
Размер потока : 2,83 Гбайт (97%)
Библиотека кодирования : x264 core 142 r2431+42 c69a006 tMod [8-bit@all X86_64]
Настройки программы : cabac=1 / ref=4 / deblock=1:-3:-3 / analyse=0x3:0x133 / me=tesa / subme=10 / psy=1 / fade_compensate=0.00 / psy_rd=1.05:0.00 / mixed_ref=1 / me_range=24 / chroma_me=1 / trellis=2 / 8x8dct=1 / cqm=0 / deadzone=21,11 / fast_pskip=0 / chroma_qp_offset=-2 / threads=12 / lookahead_threads=2 / sliced_threads=0 / nr=0 / decimate=0 / interlaced=0 / bluray_compat=0 / constrained_intra=0 / fgo=0 / bframes=8 / b_pyramid=2 / b_adapt=2 / b_bias=0 / direct=3 / weightb=1 / open_gop=0 / weightp=2 / keyint=250 / keyint_min=25 / scenecut=40 / intra_refresh=0 / rc_lookahead=60 / rc=crf / mbtree=0 / crf=17.0000 / qcomp=0.65 / qpmin=0:0:0 / qpmax=69:69:69 / qpstep=4 / vbv_maxrate=62500 / vbv_bufsize=78125 / crf_max=0.0 / nal_hrd=none / filler=0 / ip_ratio=1.40 / pb_ratio=1.30 / aq=4:0.80 / aq-sensitivity=10.00 / aq-factor=1.00:1.00:1.00 / aq2=0 / aq3=0
Язык : English
Default : Да
Forced : Нет

Аудио
Идентификатор : 2
Формат : MPEG Audio
Версия формата : Version 1
Профиль формата : Layer 2
Идентификатор кодека : A_MPEG/L2
Идентификатор кодека/Подсказка : MP2
Продолжительность : 13 м.
Вид битрейта : Постоянный
Битрейт : 256 Кбит/сек
Каналы : 2 канала
Частота : 48,0 КГц
Метод сжатия : С потерями
Размер потока : 25,3 Мбайт (1%)
Язык : English
Default : Да
Forced : Нет



info [Профиль]  [ЛС] 

xvortex

Пол: Пол:Муж

Стаж: 6 лет 2 месяца

Сообщений: 6

Россия
Рейтинг

post 02-Янв-2015 23:00 (спустя 6 часов) [-]0[+]

[Цитировать] 

Ох нифига-ж себе...
info [Профиль]  [ЛС] 

alexcosmo

Пол: Пол:Муж

Стаж: 6 лет 4 месяца

Сообщений: 36

Россия
Рейтинг

post 03-Янв-2015 10:16 (спустя 11 часов) [-]0[+]

[Цитировать] 

А тот что в Дубае был есть?
info [Профиль]  [ЛС] 

blac1

Пол: Пол:Муж

Стаж: 4 года 10 месяцев

Сообщений: 154

Россия
Рейтинг

post 03-Янв-2015 11:53 (спустя 1 час 37 минут) [-]0[+]

[Цитировать] 

В Дубае тоже норм, вокруг небоскреба ,а вот в России хрень салют даже обидно
info [Профиль]  [ЛС] 

R9062

Стаж: 3 года 9 месяцев

Сообщений: 13

Рейтинг

post 03-Янв-2015 14:28 (спустя 2 часа 35 минут) [-]0[+]

[Цитировать] 

Отличное шоу. Спасибо раздающему.
info [Профиль]  [ЛС] 

AlienHouse6032

Пол: Пол:Муж

Стаж: 3 года 6 месяцев

Сообщений: 1116

Предупреждений: 4

Канада
Рейтинг

post 03-Янв-2015 16:15 (спустя 1 час 47 минут) [-]2[+]

[Цитировать] 

Дубай. Лондон. Гонконг. Пекин.. такие шоу были красивые. А в Рашке. хрень. На Сочи потратились. а на салют нет денег ....
info [Профиль]  [ЛС] 

xvortex

Пол: Пол:Муж

Стаж: 6 лет 2 месяца

Сообщений: 6

Россия
Рейтинг

post 03-Янв-2015 16:42 (спустя 26 минут) [-]0[+]

[Цитировать] 

Угу зато в новостях не забыли упомянуть, что в Лондоне за посмотреть салют брали по 10 фунтов с человека, а у нас бесплатно :-P
info [Профиль]  [ЛС] 
Показать сообщения:    
Ответить на тему

Текущее время: 03-Дек 00:14

Часовой пояс: GMT + 4



Вы не можете начинать темы
Вы не можете отвечать на сообщения
Вы не можете редактировать свои сообщения
Вы не можете удалять свои сообщения
Вы не можете голосовать в опросах
Вы не можете прикреплять файлы к сообщениям
Вы не можете скачивать файлы