Ошибка

До окончания фрилича осталось:


По ту сторону изгороди / Over The Garden Wall (Сезон 1, Серии 1-10 из 10) [2014 г., Мультфильм, фэнтези, WEB-DL 1080p] MVO (Причудики)

Ответить на тему
 
Автор Сообщение

shame

Пол: Пол:Муж

Стаж: 2 года 1 месяц

Сообщений: 17

Россия
Рейтинг

post 23-Дек-2014 22:06 3[+]

[Цитировать] 

По ту сторону изгороди / Over The Garden Wall

Оригинальное название: Over The Garden Wall
Год выпуска: 2014
Страна: США
Жанр: Мультфильм, фэнтези
Серия: Серии 1-10 из 10
Сезон: 1
Продолжительность: 10x ~ 00:11:00
Перевод: Любительский (многоголосый, закадровый) (Причудики)

Режиссер:
Нат Кэш

В ролях:
Элайджа Вуд, Колин Дин, Мелани Лински
Описание:
История разворачивается вокруг двух братьев Вирта и Грега, которые потерялись в лесу и ищут дорогу домой.

Список серий:
Часть 1: Старая мельница
Часть 2: Поттсфильдский культ
Часть 3: Школьные глупости
Часть 4: Песни Темного Фонаря
Часть 5: Безумная Любовь
Часть 6: Колыбельная в Стране Лягушек
Часть 7: Звон Колокольчика
Часть 8: Дети в лесу
Часть 9: В Неизведанное
Часть 10: Неизведанное
Качество: WEB-DL 1080p Сэмпл
Формат: MKV
Видео кодек: AVC
Аудио кодек: AC3
Данные видео: 1920x1080 (16/9), 23.976 fps, AVC, ~ 4 313 Kbps avg, 0.087 bit/pixel
Данные аудио: 48 kHz, AC3 Dolby Digital, 2/0 (L,R) ch, ~192 kbps Rus
Данные аудио: 48 kHz, AC3 Dolby Digital, 2/0 (L,R) ch, ~192 kbps Eng
\Over.The.Garden.Wall.S01E01.1080p.WEB-DL.Rus.Eng-Pri4udiki.mkv
Format : Matroska
Format version : Version 4 / Version 2
File size : 381 MiB
Duration : 11mn 7s
Overall bit rate : 4 792 Kbps
Encoded date : UTC 2014-10-28 18:27:47
Writing application : mkvmerge v7.0.0 ('Where We Going') 64bit built on Jun 9 2014 15:16:27
Writing library : libebml v1.3.0 + libmatroska v1.4.1
DURATION : 00:11:07.392000000
NUMBER_OF_FRAMES : 20856
NUMBER_OF_BYTES : 16017408
_STATISTICS_WRITING_APP : mkvmerge v7.0.0 ('Where We Going') 64bit built on Jun 9 2014 15:16:27
_STATISTICS_WRITING_DATE_UTC : 2014-10-28 18:27:47
_STATISTICS_TAGS : BPS DURATION NUMBER_OF_FRAMES NUMBER_OF_BYTES
Attachment : Yes

Video
ID : 1
Format : AVC
Format/Info : Advanced Video Codec
Format profile : High@L4.0
Format settings, CABAC : Yes
Format settings, ReFrames : 4 frames
Codec ID : V_MPEG4/ISO/AVC
Duration : 11mn 7s
Bit rate : 4 313 Kbps
Width : 1 920 pixels
Height : 1 080 pixels
Display aspect ratio : 16:9
Frame rate mode : Constant
Frame rate : 23.976 fps
Color space : YUV
Chroma subsampling : 4:2:0
Bit depth : 8 bits
Scan type : Progressive
Bits/(Pixel*Frame) : 0.087
Stream size : 343 MiB (90%)
Language : English
Default : Yes
Forced : No
Color primaries : BT.709
Transfer characteristics : BT.709
Matrix coefficients : BT.709

Audio #1
ID : 2
Format : AC-3
Format/Info : Audio Coding 3
Mode extension : CM (complete main)
Format settings, Endianness : Big
Codec ID : A_AC3
Duration : 11mn 7s
Bit rate mode : Constant
Bit rate : 192 Kbps
Channel(s) : 2 channels
Channel positions : Front: L R
Sampling rate : 48.0 KHz
Bit depth : 16 bits
Compression mode : Lossy
Stream size : 15.3 MiB (4%)
Language : Russian
Default : Yes
Forced : No

Audio #2
ID : 3
Format : AC-3
Format/Info : Audio Coding 3
Mode extension : CM (complete main)
Format settings, Endianness : Big
Codec ID : A_AC3
Duration : 11mn 7s
Bit rate mode : Constant
Bit rate : 192 Kbps
Channel(s) : 2 channels
Channel positions : Front: L R
Sampling rate : 48.0 KHz
Bit depth : 16 bits
Compression mode : Lossy
Stream size : 15.3 MiB (4%)
Language : English
Default : No
Forced : No
info [Профиль]  [ЛС] 

bakayoshi

Стаж: 6 лет 9 месяцев

Сообщений: 29

Таиланд
Рейтинг

post 05-Янв-2015 05:51 (спустя 12 дней) [-]0[+]

[Цитировать] 

годнота, спасибо
info [Профиль]  [ЛС] 

Rryry

Стаж: 11 месяцев 7 дней

Сообщений: 2

Рейтинг

post 07-Янв-2016 00:12 (спустя 1 год) [-]0[+]

[Цитировать] 

Жаль, что так мало серий.
info [Профиль]  [ЛС] 

Ян

Пол: Пол:Муж

Стаж: 5 лет 2 месяца

Сообщений: 330

Россия
Рейтинг

post 13-Июн-2016 20:17 (спустя 5 месяцев 6 дней) [-]0[+]

[Цитировать] 

Посмотрел мультик от нечего делать. Первую серию смотрел с опредленным скептетизмом, не ожидая ничего особенного. Даже аннотацию не читал...
В итоге: Мульт затянул с первой серии. Потом я не мог оторваться. Рисовка хорошая. Музыкальное сопровождение завораживает. Что то "нуарно- траурное " с нотками классики...Мультик пронизан философией, которую зритель для себя откроет сам и поймет по своему. Остался очень приятный осадок...заставил задуматься... Было очень жалко, когда кончилось. Хочется еще и еще...

_________________
info [Профиль]  [ЛС] 
Показать сообщения:    
Ответить на тему

Текущее время: 10-Дек 13:02

Часовой пояс: GMT + 4



Вы не можете начинать темы
Вы не можете отвечать на сообщения
Вы не можете редактировать свои сообщения
Вы не можете удалять свои сообщения
Вы не можете голосовать в опросах
Вы не можете прикреплять файлы к сообщениям
Вы не можете скачивать файлы