Ошибка

Топ Гир - Идеальное Путешествие 2 / Top Gear - The Perfect Road Trip 2 [2014, Автопередача, BDRip]

Ответить на тему
 
Автор Сообщение

CooL

Пол: Пол:Муж

Стаж: 6 лет 8 месяцев

Сообщений: 1235

СССР
Рейтинг

post 20-Дек-2014 16:53 1[+]

[Цитировать] 


Топ Гир - Идеальное Путешествие 2
Top Gear - The Perfect Road Trip 2

Название: Топ Гир - Идеальное Путешествие 2

Год выпуска: 2014
Жанр: Автопередача
Продолжительность: 01:34:28
Страна: Великобритания

Перевод:
Профессиональный (Многоголосый закадровый) - [AlexFilm]
Профессиональный (Многоголосый закадровый) - [Gears Media]
Профессиональный (двухголосый закадровый) - [Jetvis Studio]
Ведущие: Jeremy Clarkson, Richard Hammond
Описание: В 2013 году Джереми Кларксон и Ричард Хаммонд попытались совершить поездку, которая должна была стать идеальной. Всё началось хорошо, но кончилось довольно плохо. В этот раз дуэт из "Топ Гира" пытается совершить вторую попытку в надежде избежать неприятностей вроде задержания французской полицией.
Добро пожаловать в "Идеальное путешествие 2". И вновь Кларксон и Хаммонд ищут радость и идеал среди целого ряда быстрых и прекрасных автомобилей, едущих по славным дорогам среди живописных видов под средиземноморским солнцем. В поиске идеала дуэту предстоит проделать массу забавных трюков и выдержать несколько нелепых испытаний, кульминацией которых станет гонка на острове Капри. Топ Гир - Идеальное путешествие 2. В этот раз, и впрямь идеальное. Если не считать кое-каких мелочей.


Автор рипа: RARBG
Озвучка: Jetvis Studio - | [AlexFilm] - | [Gears Media]
Сборка:
Сэмпл
Качество: BDRip
Формат: AVI
Видео кодек: XviD
Аудио кодек: AC3
Видео: 720x400 (1.80:1), 25 fps, XviD MPEG-4 ~1595 kbps avg, 0.22 bit/pixel
Аудио 1 : 48 kHz, AC3 Dolby Digital, 2/0 (L,R) ch, ~192 kbps [Jetvis Studio]
Аудио 2 : 48 kHz, AC3 Dolby Digital, 2/0 (L,R) ch, ~192 kbps [Gears Media]
Аудио 3 : 48 kHz, AC3 Dolby Digital, 2/0 (L,R) ch, ~192 kbps [AlexFilm]
Аудио 4 : 48 kHz, AC3 Dolby Digital, 3/2 (L,C,R,l,r) + LFE ch, ~448 kbps [ENG]

Видео
Идентификатор : 0
Формат : MPEG-4 Visual
Профиль формата : Simple@L5
Параметр BVOP формата : Нет
Параметр QPel формата : Нет
Параметр GMC формата : Без точки перехода
Параметр матрицы формата : Default (H.263)
Идентификатор кодека : XVID
Идентификатор кодека/Подсказка : XviD
Продолжительность : 1 ч. 34 м.
Битрейт : 1598 Кбит/сек
Ширина : 720 пикселей
Высота : 400 пикселей
Соотношение сторон : 16:9
Частота кадров : 25,000 кадров/сек
Цветовое пространство : YUV
Субдискретизация насыщенности : 4:2:0
Битовая глубина : 8 бит
Тип развёртки : Прогрессивная
Метод сжатия : С потерями
Бит/(Пиксели*Кадры) : 0.222
Размер потока : 1,05 Гбайт (60%)
Библиотека кодирования : Lavc56.12.101

Аудио #1
Идентификатор : 1
Формат : AC-3
Формат/Информация : Audio Coding 3
Расширение режима : CM (complete main)
Параметр Endianness формата : Big
Идентификатор кодека : 2000
Продолжительность : 1 ч. 34 м.
Вид битрейта : Постоянный
Битрейт : 192 Кбит/сек
Каналы : 2 канала
Расположение каналов : Front: L R
Частота : 48,0 КГц
Битовая глубина : 16 бит
Метод сжатия : С потерями
Размер потока : 130 Мбайт (7%)
Выравнивание : Разделение по промежуткам
Продолжительность промежутка : 40 мс. (1,00 видеокадр)
Время предзагрузки промежутка : 500 мс.

Аудио #2
Идентификатор : 2
Формат : AC-3
Формат/Информация : Audio Coding 3
Расширение режима : CM (complete main)
Параметр Endianness формата : Big
Идентификатор кодека : 2000
Продолжительность : 1 ч. 34 м.
Вид битрейта : Постоянный
Битрейт : 192 Кбит/сек
Каналы : 2 канала
Расположение каналов : Front: L R
Частота : 48,0 КГц
Битовая глубина : 16 бит
Метод сжатия : С потерями
Размер потока : 130 Мбайт (7%)
Выравнивание : Разделение по промежуткам
Продолжительность промежутка : 40 мс. (1,00 видеокадр)
Время предзагрузки промежутка : 500 мс.

Аудио #3
Идентификатор : 3
Формат : AC-3
Формат/Информация : Audio Coding 3
Расширение режима : CM (complete main)
Параметр Endianness формата : Big
Идентификатор кодека : 2000
Продолжительность : 1 ч. 34 м.
Вид битрейта : Постоянный
Битрейт : 192 Кбит/сек
Каналы : 2 канала
Расположение каналов : Front: L R
Частота : 48,0 КГц
Битовая глубина : 16 бит
Метод сжатия : С потерями
Размер потока : 130 Мбайт (7%)
Выравнивание : Разделение по промежуткам
Продолжительность промежутка : 40 мс. (1,00 видеокадр)
Время предзагрузки промежутка : 500 мс.

Аудио #4
Идентификатор : 4
Формат : AC-3
Формат/Информация : Audio Coding 3
Расширение режима : CM (complete main)
Параметр Endianness формата : Big
Идентификатор кодека : 2000
Продолжительность : 1 ч. 34 м.
Вид битрейта : Постоянный
Битрейт : 448 Кбит/сек
Каналы : 6 каналов
Расположение каналов : Front: L C R, Side: L R, LFE
Частота : 48,0 КГц
Битовая глубина : 16 бит
Метод сжатия : С потерями
Размер потока : 303 Мбайт (17%)
Выравнивание : Соединение по промежуткам
Продолжительность промежутка : 40 мс. (1,00 видеокадр)
Время предзагрузки промежутка : 512 мс.
info [Профиль]  [ЛС] 

Alins

Пол: Пол:Муж

Стаж: 5 лет 5 месяцев

Сообщений: 351

Рейтинг

post 04-Янв-2015 01:15 (спустя 14 дней) [-]0[+]

[Цитировать] 

kolob_117
info [Профиль]  [ЛС] 

EgorYurov

Пол: Пол:Муж

Стаж: 6 лет 10 месяцев

Сообщений: 669

Предупреждений: 2

Россия
Рейтинг

post 05-Янв-2015 18:12 (спустя 1 день 16 часов) [-]0[+]

[Цитировать] 

Вообще хрень выпуск. Без Мэя не торт.

_________________
info [Профиль]  [ЛС] 
Показать сообщения:    
Ответить на тему

Текущее время: 04-Дек 12:20

Часовой пояс: GMT + 4



Вы не можете начинать темы
Вы не можете отвечать на сообщения
Вы не можете редактировать свои сообщения
Вы не можете удалять свои сообщения
Вы не можете голосовать в опросах
Вы не можете прикреплять файлы к сообщениям
Вы не можете скачивать файлы