Ошибка

До окончания фрилича осталось:


Топ Гир - Идеальное Путешествие 2 / Top Gear - The Perfect Road Trip 2 [2014, Автопередача, BDRip 720p]

Ответить на тему
 
Автор Сообщение

CooL

Пол: Пол:Муж

Стаж: 6 лет 9 месяцев

Сообщений: 1235

СССР
Рейтинг

post 20-Дек-2014 16:41 0[+]

[Цитировать] 


Топ Гир - Идеальное Путешествие 2
Top Gear - The Perfect Road Trip 2

Название: Топ Гир - Идеальное Путешествие 2

Год выпуска: 2014
Жанр: Автопередача
Продолжительность: 01:34:28
Страна: Великобритания

Перевод:
Профессиональный (Многоголосый закадровый) - [AlexFilm]
Профессиональный (Многоголосый закадровый) - [Gears Media]
Профессиональный (двухголосый закадровый) - [Jetvis Studio]
Субтитры : Английский
Ведущие: Jeremy Clarkson, Richard Hammond
Описание: В 2013 году Джереми Кларксон и Ричард Хаммонд попытались совершить поездку, которая должна была стать идеальной. Всё началось хорошо, но кончилось довольно плохо. В этот раз дуэт из "Топ Гира" пытается совершить вторую попытку в надежде избежать неприятностей вроде задержания французской полицией.
Добро пожаловать в "Идеальное путешествие 2". И вновь Кларксон и Хаммонд ищут радость и идеал среди целого ряда быстрых и прекрасных автомобилей, едущих по славным дорогам среди живописных видов под средиземноморским солнцем. В поиске идеала дуэту предстоит проделать массу забавных трюков и выдержать несколько нелепых испытаний, кульминацией которых станет гонка на острове Капри. Топ Гир - Идеальное путешествие 2. В этот раз, и впрямь идеальное. Если не считать кое-каких мелочей.


Автор рипа: NTb
Озвучка: Jetvis Studio - | [AlexFilm] - | [Gears Media]
Сборка:
Сэмпл
Качество: BDRip 720p
Формат: MKV
Видео кодек: x264
Аудио кодек: AC3 | DTS
Видео: 1280x720 , 25 fps, ~7872 kbps avg, 0.342 bit/pixel
Аудио 1 : 48 kHz, AC3 Dolby Digital, 2/0 (L,R) ch, ~192 kbps [Jetvis Studio]
Аудио 2 : 48 kHz, AC3 Dolby Digital, 2/0 (L,R) ch, ~192 kbps [Gears Media]
Аудио 3 : 48 kHz/16 bits, DTS, 3/2 (L,C,R,l,r) + LFE ch, ~1510.00 kbps avg [AlexFilm]
Аудио 4 : 48 kHz/16 bits, DTS, 3/2 (L,C,R,l,r) + LFE ch, ~1510.00 kbps avg [ENG]

Видео
Идентификатор : 1
Формат : AVC
Формат/Информация : Advanced Video Codec
Профиль формата : High@L4.1
Параметр CABAC формата : Да
Параметр ReFrames формата : 9 кадров
Идентификатор кодека : V_MPEG4/ISO/AVC
Продолжительность : 1 ч. 34 м.
Битрейт : 7872 Кбит/сек
Ширина : 1280 пикселей
Высота : 720 пикселей
Соотношение сторон : 16:9
Режим частоты кадров : Постоянный
Частота кадров : 25,000 кадров/сек
Цветовое пространство : YUV
Субдискретизация насыщенности : 4:2:0
Битовая глубина : 8 бит
Тип развёртки : Прогрессивная
Бит/(Пиксели*Кадры) : 0.342
Размер потока : 5,19 Гбайт (68%)
Библиотека кодирования : x264 core 142 r2479 dd79a61
Настройки программы : cabac=1 / ref=9 / deblock=1:-3:-3 / analyse=0x3:0x133 / me=umh / subme=10 / psy=1 / psy_rd=1.00:0.00 / mixed_ref=1 / me_range=48 / chroma_me=1 / trellis=2 / 8x8dct=1 / cqm=0 / deadzone=21,11 / fast_pskip=1 / chroma_qp_offset=-2 / threads=6 / lookahead_threads=1 / sliced_threads=0 / nr=0 / decimate=1 / interlaced=0 / bluray_compat=0 / constrained_intra=0 / bframes=9 / b_pyramid=2 / b_adapt=2 / b_bias=0 / direct=3 / weightb=1 / open_gop=0 / weightp=2 / keyint=250 / keyint_min=25 / scenecut=40 / intra_refresh=0 / rc_lookahead=150 / rc=crf / mbtree=0 / crf=17.0 / qcomp=0.70 / qpmin=0 / qpmax=69 / qpstep=4 / vbv_maxrate=50000 / vbv_bufsize=62500 / crf_max=0.0 / nal_hrd=none / filler=0 / ip_ratio=1.30 / pb_ratio=1.20 / aq=1:0.75
Язык : English
Default : Да
Forced : Нет

Аудио #1
Идентификатор : 2
Формат : DTS
Формат/Информация : Digital Theater Systems
Режим : 16
Параметр Endianness формата : Big
Идентификатор кодека : A_DTS
Продолжительность : 1 ч. 34 м.
Вид битрейта : Постоянный
Битрейт : 1510 Кбит/сек
Каналы : 6 каналов
Расположение каналов : Front: L C R, Side: L R, LFE
Частота : 48,0 КГц
Битовая глубина : 24 бит
Метод сжатия : С потерями
Размер потока : 1020 Мбайт (13%)
Заголовок : DTS 5.1 AlexFilm
Язык : Russian
Default : Да
Forced : Нет

Аудио #2
Идентификатор : 3
Формат : DTS
Формат/Информация : Digital Theater Systems
Режим : 16
Параметр Endianness формата : Big
Идентификатор кодека : A_DTS
Продолжительность : 1 ч. 34 м.
Вид битрейта : Постоянный
Битрейт : 1509 Кбит/сек
Каналы : 6 каналов
Расположение каналов : Front: L C R, Side: L R, LFE
Частота : 48,0 КГц
Битовая глубина : 16 бит
Метод сжатия : С потерями
Размер потока : 1020 Мбайт (13%)
Заголовок : DTS 5.1 Original
Язык : English
Default : Нет
Forced : Нет

Аудио #3
Идентификатор : 5
Формат : AC-3
Формат/Информация : Audio Coding 3
Расширение режима : CM (complete main)
Параметр Endianness формата : Big
Идентификатор кодека : A_AC3
Продолжительность : 1 ч. 34 м.
Вид битрейта : Постоянный
Битрейт : 192 Кбит/сек
Каналы : 2 канала
Расположение каналов : Front: L R
Частота : 48,0 КГц
Битовая глубина : 16 бит
Метод сжатия : С потерями
Размер потока : 130 Мбайт (2%)
Заголовок : Jetvis Studio
Default : Нет
Forced : Нет

Аудио #4
Идентификатор : 6
Формат : AC-3
Формат/Информация : Audio Coding 3
Расширение режима : CM (complete main)
Параметр Endianness формата : Big
Идентификатор кодека : A_AC3
Продолжительность : 1 ч. 34 м.
Вид битрейта : Постоянный
Битрейт : 192 Кбит/сек
Каналы : 2 канала
Расположение каналов : Front: L R
Частота : 48,0 КГц
Битовая глубина : 16 бит
Метод сжатия : С потерями
Размер потока : 130 Мбайт (2%)
Заголовок : GearsMedia
Default : Нет
Forced : Нет

Текст
Идентификатор : 4
Формат : UTF-8
Идентификатор кодека : S_TEXT/UTF8
Идентификатор кодека/Информация : UTF-8 Plain Text
Заголовок : SDH
Язык : English
Default : Нет
Forced : Нет

Меню
00:00:00.000 : en:01. A New Start In Venice
00:03:23.320 : en:02. McLaren 650S Spider v Lamborghini Huracan
00:19:35.640 : en:03. Jaguar F Type R Coupe v BMW M4 Coupe
00:33:17.000 : en:04. McLaren P1
00:40:01.200 : en:05. Hammond's Ferrari Dust-up
00:52:06.000 : en:06. Mini Cooper S v Audi S1
01:01:35.640 : en:07. Alfa Romeo 4C v Corvette Stingray
01:15:21.800 : en:08. Mercedes-Benz A45 AMG v VW Golf R
01:22:40.600 : en:09. Alfa Romeo Giulia Spider & Alfa Romeo 2600 Spider
01:27:22.000 : en:10. The Race to Capri - Tornado Power Boats
01:31:56.280 : en:11. Capri Mk1 3000 GXL v Capri 2.8 Injection Special
info [Профиль]  [ЛС] 

Odiumag

Пол: Пол:Муж

Стаж: 6 лет 11 месяцев

Сообщений: 35

Рейтинг

post 24-Дек-2014 12:37 (спустя 3 дня) [-]5[+]

[Цитировать] 

Русские субтитры
http://cotranslate.net/translations/subtitles/8336

_________________
Bonus used: 3000 (15+15+15+15+35)
info [Профиль]  [ЛС] 
Показать сообщения:    
Ответить на тему

Текущее время: 09-Дек 23:27

Часовой пояс: GMT + 4



Вы не можете начинать темы
Вы не можете отвечать на сообщения
Вы не можете редактировать свои сообщения
Вы не можете удалять свои сообщения
Вы не можете голосовать в опросах
Вы не можете прикреплять файлы к сообщениям
Вы не можете скачивать файлы