Ошибка

Бриклберри / Brickleberry / Сезон: 3 / Серии: 10 из 10 (Роджер Блэк, Вако Оджин / Roger Black, Waco O'Guin) [2014, Комедия, чёрный юмор, WEB-DLRip] DVO [NewStudio]

Ответить на тему
 
Автор Сообщение

sanialis

Пол: Пол:Муж

Стаж: 6 лет 11 месяцев

Сообщений: 54

Россия
Рейтинг

post 04-Дек-2014 15:05 1[+]

[Цитировать] 

Бриклберри / Brickleberry

Страна: США
Жанр: Комедия, чёрный юмор
Продолжительность: ~ 22 мин
Год выпуска: 2014
Серия: Серии 10 из 10
Перевод: Профессиональный (двухголосый закадровый) (NewStudio)
Русские субтитры: нет
Режиссёр:
  • Роджер Блэк / Roger Black
  • Вако Оджин / Waco O'Guin
Роли озвучивали: Роджер Блэк, Дэвид Хэрман, Том Кенни, Кэйтлин Олсен, Дэниэл Тош
Описание: Бриклберри расказывает историю группы рейнджеров, работающих в национальном заповеднике, судьба которого висит на волоске. Внезапно в коллективе появляется новичок, способный изменить ситуацию и вдохновить их сделать все возможное для спасения парка.

Доп. информация: В мультсериале присутствует запредельное количество ненормативной лексики, сцен насилия и взрывоопасного юмора. Наслаждайтесь просмотром!

Качество: WEB-DLRip
Формат: AVI
Видео: XviD, 720x400, 23.976 fps, 1518 kbps
Аудио: MP3, 48 KHz, 2 ch, 128 kbps - Русский [NewStudio]
Аудио 2: MP3, 48 KHz, 2 ch, 128 kbps - Английский
Субтитры: нет
01. Крик Обамы / Obamascare
02. Добро пожаловать в наш клуб / In Da Club
03. Мисс "Национальный Парк" / Miss National Park
04. Отцы и детки / That Brother's My Father
05. Покажи им ковбой / Write 'Em Cowboy
06. Старые раны / Old Wounds
07. Папенькин ребёнок / Baby Daddy
08. Тевье Бесстрашный летчик / Teve the Fearless Pilot
09. Высокие ставки / High Stakes
10. Угроза по имени Эмбер / Amber Alert

Код:

General
Complete name: Brickleberry.s03e01.webdl.NewStudio.TV.avi
Format: AVI
Format/Info: Audio Video Interleave
File size: 280 MiB
Duration: 21mn 54s
Overall bit rate: 1 788 Kbps
Writing application: VirtualDubMod 1.5.10.2 (build 2540/release)
Writing library: VirtualDubMod build 2540/release

Video
ID: 0
Format: MPEG-4 Visual
Format profile: Advanced Simple@L5
Format settings, BVOP : 2
Format settings, QPel: No
Format settings, GMC: No warppoints
Format settings, Matrix: Default (MPEG)
Codec ID: XVID
Codec ID/Hint: XviD
Duration: 21mn 54s
Bit rate: 1 518 Kbps
Width: 720 pixels
Height: 400 pixels
Display aspect ratio: 16:9
Frame rate: 23.976 fps
Color space: YUV
Chroma subsampling: 4:2:0
Bit depth: 8 bits
Scan type: Progressive
Compression mode: Lossy
Bits/(Pixel*Frame): 0.220
Stream size: 238 MiB (85%)
Writing library: XviD 64

Audio #1
ID: 1
Format MPEG Audio
Format version: Version 1
Format profile: Layer 3
Mode: Joint stereo
Mode extension: MS Stereo
Codec ID: 55
Codec ID/Hint: MP3
Duration: 21mn 54s
Bit rate mode: Constant
Bit rate: 128 Kbps
Channel(s): 2 channels
Sampling rate: 48.0 KHz
Compression mode: Lossy
Stream size: 20.1 MiB (7%)
Alignment: Aligned on interleaves
Interleave, duration: 42 ms (1.00 video frame)
Interleave, preload duration: 504 ms

Audio #2
ID: 2
Format: MPEG Audio
Format version: Version 1
Format profile: Layer 3
Mode: Joint stereo
Mode extension: MS Stereo
Codec ID : 55
Codec ID/Hint: MP3
Duration: 21mn 54s
Bit rate mode: Constant
Bit rate: 128 Kbps
Channel(s): 2 channels
Sampling rate: 48.0 KHz
Compression mode: Lossy
Stream size: 20.1 MiB (7%)
Alignment: Aligned on interleaves
Interleave, duration: 42 ms (1.00 video frame)
Interleave, preload duration: 504 ms
Writing library: LAME3.99r
Encoding settings: -m j -V 4 -q 2 -lowpass 17 -b 128

info [Профиль]  [ЛС] 
Показать сообщения:    
Ответить на тему

Текущее время: 04-Дек 16:23

Часовой пояс: GMT + 4



Вы не можете начинать темы
Вы не можете отвечать на сообщения
Вы не можете редактировать свои сообщения
Вы не можете удалять свои сообщения
Вы не можете голосовать в опросах
Вы не можете прикреплять файлы к сообщениям
Вы не можете скачивать файлы