Ошибка

Семейка монстров / The Boxtrolls (Грэхэм Эннэйбл, Энтони Стакки) [2014, мультфильм, фэнтези, комедия, приключения, семейный, WEB-DL 720p]

Ответить на тему
 
Автор Сообщение

L

Пол: Пол:Муж

Стаж: 6 лет 7 месяцев

Сообщений: 10763

Украина
Рейтинг

post 20-Ноя-2014 09:31 1[+]

[Цитировать] 

Семейка монстров / The Boxtrolls


Название: Семейка монстров
Оригинальное название: The Boxtrolls
Год выхода: 2014
Жанр: мультфильм, фэнтези, комедия, приключения, семейный
Выпущено: США
Продолжительность: 01:36:10
Озвучивание: Дублированное [iTunes]

Режиссер: Грэхэм Эннэйбл, Энтони Стакки
Роли дублировали: Кирилл Туранский, Даниил Эльдаров, Александр Гаврилин, Владимир Антипов

О фильме: Ему не повезло родиться в роскошном замке. Вместе с семейкой забавных монстров юноша поселился прямо под мостовой. Изысканные костюмы ему заменила обычная коробка. Зато каждую ночь он мог разгуливать по темным улицам в поисках новых приключений. Но однажды он встретил очаровательную девчушку из высшего общества — и мир вокруг изменился навсегда.

| Sample

Файл
Качество: WEB-DL 720p
Формат: MKV
Видео: 3958 kb/s, 1280x718
Аудио: AC3, 384 kb/s (6 ch)
Общее
Уникальный идентификатор : 236989808085028176987596144232572526065 (0xB24A93A88BB613F88CE90EA771EE1DF1)
Полное имя : D:\Тапкораздачи\Semeyka.M0nstr0v.2014.D.WEB-DL.720p.mkv
Формат : Matroska
Версия формата : Version 4 / Version 2
Размер файла : 2,98 Гбайт
Продолжительность : 1 ч. 36 м.
Общий поток : 4430 Кбит/сек
Дата кодирования : UTC 2014-11-19 19:37:24
Программа кодирования : mkvmerge v6.9.1 ('Blue Panther') 64bit built on Apr 18 2014 18:23:38
Библиотека кодирования : libebml v1.3.0 + libmatroska v1.4.1

Видео
Идентификатор : 1
Формат : AVC
Формат/Информация : Advanced Video Codec
Профиль формата : High@L3.1
Параметр CABAC формата : Нет
Параметр ReFrames формата : 2 кадра
Идентификатор кодека : V_MPEG4/ISO/AVC
Продолжительность : 1 ч. 36 м.
Битрейт : 3958 Кбит/сек
Ширина : 1280 пикселей
Высота : 718 пикселей
Соотношение сторон : 16:9
Режим частоты кадров : Постоянный
Частота кадров : 23,976 кадра/сек
Цветовое пространство : YUV
Субдискретизация насыщенности : 4:2:0
Битовая глубина : 8 бит
Тип развёртки : Прогрессивная
Бит/(Пиксели*Кадры) : 0.180
Размер потока : 2,66 Гбайт (89%)
Язык : English
Default : Да
Forced : Нет
Основные цвета : BT.709
Характеристики трансфера : BT.709
Коэффициенты матрицы : BT.709

Аудио
Идентификатор : 2
Формат : AC-3
Формат/Информация : Audio Coding 3
Расширение режима : CM (complete main)
Параметр Endianness формата : Big
Идентификатор кодека : A_AC3
Продолжительность : 1 ч. 36 м.
Вид битрейта : Постоянный
Битрейт : 384 Кбит/сек
Каналы : 6 каналов
Расположение каналов : Front: L C R, Side: L R, LFE
Частота : 48,0 КГц
Битовая глубина : 16 бит
Метод сжатия : С потерями
Размер потока : 264 Мбайт (9%)
Язык : Russian
Default : Да
Forced : Нет

Меню
00:00:00.000 : en:глава 1
00:05:54.000 : en:глава 2
00:11:53.000 : en:глава 3
00:15:23.000 : en:глава 4
00:20:24.000 : en:глава 5
00:27:10.000 : en:глава 6
00:32:25.000 : en:глава 7
00:36:28.000 : en:глава 8
00:41:47.000 : en:глава 9
00:45:47.000 : en:глава 10
00:51:59.000 : en:глава 11
00:55:59.000 : en:глава 12
01:02:05.000 : en:глава 13
01:07:28.000 : en:глава 14
01:11:29.000 : en:глава 15
01:16:29.000 : en:глава 16
01:22:07.000 : en:глава 17
01:25:32.000 : en:глава 18
01:27:33.000 : en:глава 19
01:30:02.000 : en:глава 20
info [Профиль]  [ЛС] 

rogalikman

Пол: Пол:Муж

Стаж: 7 лет 3 месяца

Сообщений: 52

Белоруссия
Рейтинг

post 25-Ноя-2014 19:25 (спустя 5 дней) [-]0[+]

[Цитировать] 

поделитесь ссылкой на английскую оригинальную версию хорошего качества
info [Профиль]  [ЛС] 

L

Пол: Пол:Муж

Стаж: 6 лет 7 месяцев

Сообщений: 10763

Украина
Рейтинг

post 25-Ноя-2014 22:08 (спустя 2 часа 42 минуты) [-]0[+]

[Цитировать] 

Что значит оригинальную? Лучшего качества видео на данный момент нет.

_________________
info [Профиль]  [ЛС] 

rogalikman

Пол: Пол:Муж

Стаж: 7 лет 3 месяца

Сообщений: 52

Белоруссия
Рейтинг

post 28-Ноя-2014 18:57 (спустя 2 дня 20 часов) [-]0[+]

[Цитировать] 

Ну здесь нет оригинальной аудио-дорожки на английском, а смотреть мультики в дубляже какого-нибудь Тимати и Мартиросяна - сомнительное удовольствие
info [Профиль]  [ЛС] 

Rossy

Пол: Пол:Муж

Стаж: 6 лет 7 месяцев

Сообщений: 49

Россия
Рейтинг

post 12-Фев-2015 18:17 (спустя 2 месяца 13 дней) [-]1[+]

[Цитировать] 

rogalikman,

Цитата:

Роли дублировали: Кирилл Туранский, Даниил Эльдаров, Александр Гаврилин, Владимир Антипов

_________________
info [Профиль]  [ЛС] 

post 06-Фев-2016 12:09 (спустя 11 месяцев 21 день) [-]0[+]

Топик был перенесен из форума Новинки 2014-2015 (Web-DL, DVD, HD DVD, Blu-ray, HD Rips) в форум Мультфильмы (HD Video)

LyaKich
 
Показать сообщения:    
Ответить на тему

Текущее время: 03-Дек 23:43

Часовой пояс: GMT + 4



Вы не можете начинать темы
Вы не можете отвечать на сообщения
Вы не можете редактировать свои сообщения
Вы не можете удалять свои сообщения
Вы не можете голосовать в опросах
Вы не можете прикреплять файлы к сообщениям
Вы не можете скачивать файлы