Ошибка

Геракл / Hercules (Бретт Рэтнер) [2014, боевик, приключения, BDRip 1080p, 3D] [Theatrical cut] [Горизонтальная анаморфная стереопара]

Ответить на тему
 
Автор Сообщение

BZzz

Пол: Пол:Муж

Стаж: 5 лет 1 месяц

Сообщений: 3647

Россия
Рейтинг

post 17-Ноя-2014 02:29 0[+]

[Цитировать] 

Геракл / Hercules
«Множество врагов. Двенадцать подвигов. Один герой»




Год выпуска: 2014
Страна: США
Жанр: боевик, приключения
Продолжительность: 01:38:05
Перевод: Профессиональный (дублированный)[цифровая лицензия iTunes]
Субтитры: английские

Режиссер: Бретт Рэтнер

В ролях: Дуэйн Джонсон (Dwayne Johnson), Иэн МакШейн (Ian McShane), Джон Хёрт (John Hurt), Руфус Сьюэлл (Rufus Sewell), Аксель Хенни (Aksel Hennie), Ингрид Больсё Бердаль (Ingrid Bolsø Berdal), Рис Ричи (Reece Ritchie), Джозеф Файнс (Joseph Fiennes)

Описание: Более тысячи лет назад измученная душа скиталась по Земле, полубог, получеловек — Геракл — могучий сын царя богов Зевса, совершив все 12 подвигов, потерял семью и теперь находит утешение только в кровавых битвах.За эти годы он собирает вокруг себя шестерых таких же потерянных воинов, единственным смыслом жизни для которых стали сражения и присутствие смертельной опасности. Эти мужчины и женщина никогда не задают вопрос, где, почему или с кем они идут сражаться; только, сколько им заплатят. Зная это, фракийский царь Котис нанимает этих воинов, чтобы они обучили его солдат и сделали из них самую сильную и великую армию всех времен.

Бюджет: $100 000 000
Сборы в США: $72 688 614
Сборы в мире: + $154 100 000 = $226 788 614
Сборы в России: $22 680 304
Рейтинг MPAA:



Качество: BDRip 1080p 3D
Формат: MKV
Видео кодек: AVC
Аудио кодек: AC3
Видео: 1920x800 (2.35:1), 23.976 fps, High@L4.1, 9 650 Kbps
Аудио #1: Rus AC3, 384 Kbps, 48.0 KHz, 6 ch
Аудио #2: Eng DTS, 1 510 Kbps, 48.0 KHz, 6 ch
...
> Фильм основан на графическом романе «Hercules: The Thracian Wars» (2008).
...
> Для того чтобы научиться удерживать равновесие при вождении колесницы, актеры ежедневно тренировались на протяжении 6 недель.

...
> Дуэйн Джонсон рассказал, что его борода была сделана из шерсти яка.

...
> Чтобы набрать необходимую для своей роли форму Дуэйн Джонсон тренировался на протяжении восьми месяцев.
...
> Специально для своей роли Ингрид Больсё Бердаль несколько месяцев обучалась стрельбе из лука у Стивена Ральфса.
...
> Съемки фильма проходили в Будапеште (Венгрия). Были задействованы съемочные площадки Origio Film Studios.

...
> Каждый съемочный день уходило по 4 часа, чтобы нанести весь необходимый грим на Дуэйна Джонсона.

...
> Несмотря на то, что на момент начала съемок Дуэйн Джонсон только оправился после операции, он настоял на том, что желает сам сниматься в сценах сражений, не прибегая к помощи дублеров.

...
> Лошадей, которых использовали на съемках фильма, тщательно тренировали на протяжении многих месяцев, чтобы они падали во время боя, а также тащили колесницу управляемую Гераклом и его соратниками.
Формат : Matroska
Версия формата : Version 3 / Version 2
Размер файла : 7,91 Гбайт
Продолжительность : 1 ч. 38 м.
Общий поток : 11,5 Мбит/сек
Название фильма : Hercules (2014)
Дата кодирования : UTC 2014-10-29 02:00:30
Программа кодирования : mkvmerge v7.3.0 ('Nouages') 64bit built on Oct 22 2014 18:53:34
Библиотека кодирования : libebml v1.3.0 + libmatroska v1.4.1

Видео
Идентификатор : 1
Формат : AVC
Формат/Информация : Advanced Video Codec
Профиль формата : High@L4.1
MultiView_Count : 2
MultiView_Layout : Side by Side (left eye first)
Параметр CABAC формата : Да
Параметр ReFrames формата : 5 кадров
Идентификатор кодека : V_MPEG4/ISO/AVC
Продолжительность : 1 ч. 38 м.
Битрейт : 9650 Кбит/сек
Ширина : 1920 пикселей
Высота : 800 пикселей
Соотношение сторон : 2,40:1
Режим частоты кадров : Постоянный
Частота кадров : 23,976 кадра/сек
Цветовое пространство : YUV
Субдискретизация насыщенности : 4:2:0
Битовая глубина : 8 бит
Тип развёртки : Прогрессивная
Бит/(Пиксели*Кадры) : 0.262
Размер потока : 6,45 Гбайт (82%)
Библиотека кодирования : x264 core 142 r2479 dd79a61
Настройки программы : cabac=1 / ref=5 / deblock=1:-3:-3 / analyse=0x3:0x113 / me=umh / subme=8 / psy=1 / psy_rd=1.00:0.00 / mixed_ref=1 / me_range=16 / chroma_me=1 / trellis=1 / 8x8dct=1 / cqm=0 / deadzone=21,11 / fast_pskip=1 / chroma_qp_offset=-2 / threads=18 / lookahead_threads=3 / sliced_threads=0 / nr=0 / decimate=1 / interlaced=0 / bluray_compat=0 / constrained_intra=0 / bframes=3 / b_pyramid=2 / b_adapt=2 / b_bias=0 / direct=3 / weightb=1 / open_gop=0 / weightp=2 / keyint=240 / keyint_min=24 / scenecut=40 / intra_refresh=0 / rc_lookahead=50 / rc=2pass / mbtree=1 / bitrate=9650 / ratetol=1.0 / qcomp=0.60 / qpmin=0 / qpmax=69 / qpstep=4 / cplxblur=20.0 / qblur=0.5 / frame-packing=3 / ip_ratio=1.40 / aq=1:1.00
Язык : English
Default : Да
Forced : Нет

Аудио #1
Идентификатор : 2
Формат : AC-3
Формат/Информация : Audio Coding 3
Расширение режима : CM (complete main)
Параметр Endianness формата : Big
Идентификатор кодека : A_AC3
Продолжительность : 1 ч. 38 м.
Вид битрейта : Постоянный
Битрейт : 384 Кбит/сек
Каналы : 6 каналов
Расположение каналов : Front: L C R, Side: L R, LFE
Частота : 48,0 КГц
Битовая глубина : 16 бит
Метод сжатия : С потерями
Размер потока : 269 Мбайт (3%)
Заголовок : Line
Язык : Russian
Default : Да
Forced : Нет

Аудио #2
Идентификатор : 3
Формат : DTS
Формат/Информация : Digital Theater Systems
Режим : 16
Параметр Endianness формата : Big
Идентификатор кодека : A_DTS
Продолжительность : 1 ч. 38 м.
Вид битрейта : Постоянный
Битрейт : 1509 Кбит/сек
Каналы : 6 каналов
Расположение каналов : Front: L C R, Side: L R, LFE
Частота : 48,0 КГц
Битовая глубина : 24 бит
Метод сжатия : С потерями
Размер потока : 1,03 Гбайт (13%)
Язык : English
Default : Нет
Forced : Нет

Текст
Идентификатор : 4
Формат : UTF-8
Идентификатор кодека : S_TEXT/UTF8
Идентификатор кодека/Информация : UTF-8 Plain Text
Язык : English
Default : Нет
Forced : Нет

Меню
00:00:00.000 : en:00:00:00.000
00:08:10.782 : en:00:08:10.782
00:14:15.813 : en:00:14:15.813
00:23:38.250 : en:00:23:38.250
00:30:02.050 : en:00:30:02.050
00:39:31.869 : en:00:39:31.869
00:48:16.060 : en:00:48:16.060
00:54:13.000 : en:00:54:13.000
01:02:26.493 : en:01:02:26.493
01:12:36.727 : en:01:12:36.727
01:20:57.769 : en:01:20:57.769
01:30:52.071 : en:01:30:52.071
info [Профиль]  [ЛС] 

resident02

Пол: Пол:Муж

Стаж: 6 лет 5 месяцев

Сообщений: 46

Молдавия
Рейтинг

post 17-Ноя-2014 20:25 (спустя 17 часов) [-]0[+]

[Цитировать] 

КАК КАЧЕСВО ???? кто скажет ??????
info [Профиль]  [ЛС] 

Володябосяк

Пол: Пол:Муж

Стаж: 3 года 5 месяцев

Сообщений: 45

Россия
Рейтинг

post 18-Ноя-2014 16:59 (спустя 20 часов) [-]1[+]

[Цитировать] 

Я скажу! Качество - отличное. Озвучка - тоже. Вначале фильма 3д зрелищное, потом слабеет. Фильм - ок, Рок - мужик.

_________________
Трезв, горд и опасен.
info [Профиль]  [ЛС] 

beatrazor

Пол: Пол:Муж

Стаж: 6 лет 6 месяцев

Сообщений: 34

Рейтинг

post 21-Ноя-2014 03:04 (спустя 2 дня 10 часов) [-]0[+]

[Цитировать] 

Володябосяк писал(а):

Я скажу! Качество - отличное. Озвучка - тоже. Вначале фильма 3д зрелищное, потом слабеет. Фильм - ок, Рок - мужик.
Соглашусь - отличное 3D. Даже с парой вылетов.
info [Профиль]  [ЛС] 

seregashar

Пол: Пол:Муж

Стаж: 6 лет 7 месяцев

Сообщений: 382

СССР
Рейтинг

post 20-Дек-2014 23:47 (спустя 29 дней) [-]0[+]

[Цитировать] 

я бы качество картинки оценил 8 из 10. гигов на 15-20 было бы лучше.

_________________
ДИНОЗАВР ASUS P5Q-e/проц q9550 2.8@3.5/видео ZOTAC GTX470amp1280mb/8gb ram/OC Win7 64bit/SSD Silicon Power V70/монитор 1680*1050/Chieftec APS-850C
info [Профиль]  [ЛС] 

post 13-Май-2015 13:52 (спустя 4 месяца 23 дня) [-]0[+]

Топик был перенесен из форума Новинки (3D) в форум 3D

BZzz
 
Показать сообщения:    
Ответить на тему

Текущее время: 03-Дек 21:49

Часовой пояс: GMT + 4



Вы не можете начинать темы
Вы не можете отвечать на сообщения
Вы не можете редактировать свои сообщения
Вы не можете удалять свои сообщения
Вы не можете голосовать в опросах
Вы не можете прикреплять файлы к сообщениям
Вы не можете скачивать файлы