Ошибка

Северный Флот - Всё внутри - 2014, FLAC (image+.cue), lossless

Ответить на тему
 
Автор Сообщение

feumcok

Пол: Пол:Муж

Стаж: 6 лет 7 месяцев

Сообщений: 41

Россия
Рейтинг

post 17-Ноя-2014 01:35 2[+]

[Цитировать] 

Северный Флот - Всё внутри

Жанр: Alternative rock, Punk-rock, Post-punk
Страна: Россия
Год: 2014
Издатель (лейбл): Polygon Records
Аудио кодек: FLAC
Тип релиза: image+.cue
Битрейт аудио: lossless
Продолжительность: 00:37:31
Полиграфия: отсутствует
Источник (релизёр): feumcok
Треклист:
01: Надвигается Северный Флот (5:29)
02: Рождённый убивать (4:04)
03: Вперёд и вверх (3:53)
04: Харон (5:11)
05: Старый крысолов (3:31)
06: Красные реки (3:31)
07: Стрелы (3:42)
08: Танцуй, король (4:23)
09: Всё внутри (3:43)
Доп. информация: Дебютный альбом группы "Северный Флот"
Exact Audio Copy V1.0 beta 3 from 29. August 2011

Отчёт EAC об извлечении, выполненном 16. ноября 2014, 23:43

Северный Флот / Всё внутри

Дисковод: TSSTcorpCDDVDW SH-224DB Adapter: 1 ID: 0

Режим чтения : Достоверность
Использование точного потока : Да
Отключение кэша аудио : Нет
Использование указателей C2 : Нет

Комбинированное смещение чтения/записи : 0
Способность читать области Lead-in и Lead-out : Нет
Заполнение пропущенных сэмплов тишиной : Да
Удаление блоков с тишиной в начале и конце : Нет
При вычислениях CRC использовались нулевые сэмплы : Да
Интерфейс : Встроенный Win32-интерфейс для Win NT/2000

Выходной формат : Пользовательский кодировщик
Выбранный битрейт : 1024 kBit/s
Качество : Высокий
Добавление ID3-тега : Нет
Утилита сжатия : C:\Program Files (x86)\Exact Audio Copy\FLAC\FLAC.EXE
Дополнительные параметры : -6 -V -T "ARTIST=%artist%" -T "TITLE=%title%" -T "ALBUM=%albumtitle%" -T "DATE=%year%" -T "TRACKNUMBER=%tracknr%" -T "GENRE=%genre%" -T "COMMENT=%comment%" -T "BAND=%albuminterpret%" -T "ALBUMARTIST=%albuminterpret%" -T "COMPOSER=%composer%" %haslyrics%--tag-from-file=LYRICS="%lyricsfile%"%haslyrics% -T "DISCNUMBER=%cdnumber%" -T "TOTALDISCS=%totalcds%" -T "TOTALTRACKS=%numtracks%" %hascover%--picture="%coverfile%"%hascover% %source% -o %dest%

TOC извлечённого CD

Трек | Старт | Длительность | Начальный сектор | Конечный сектор
---------------------------------------------------------------------
1 | 0:00.00 | 5:29.57 | 0 | 24731
2 | 5:29.57 | 4:04.34 | 24732 | 43065
3 | 9:34.16 | 3:53.30 | 43066 | 60570
4 | 13:27.46 | 5:11.00 | 60571 | 83895
5 | 18:38.46 | 3:31.44 | 83896 | 99764
6 | 22:10.15 | 3:31.30 | 99765 | 115619
7 | 25:41.45 | 3:42.09 | 115620 | 132278
8 | 29:23.54 | 4:23.23 | 132279 | 152026
9 | 33:47.02 | 3:43.41 | 152027 | 168792

Характеристики диапазона извлечения и сообщения об ошибках

Выбранный диапазон

Имя файла C:\Users\Администратор\Desktop\Северный Флот - Всё внутри (2014)\Северный Флот - Всё внутри.wav

Пиковый уровень 99.8 %
Скорость извлечения 4.4 X
Качество диапазона 100.0 %
CRC копии 73A530AD
Копирование... OK

Ошибок не произошло

Конец отчёта
REM GENRE "Alt. Rock"
REM DATE 2014
REM DISCID 6608CA09
REM COMMENT "ExactAudioCopy v1.0b3"
PERFORMER "Северный Флот"
TITLE "Всё внутри"
FILE "Северный Флот - Всё внутри.flac" WAVE
TRACK 01 AUDIO
TITLE "Надвигается Северный Флот"
PERFORMER "Северный Флот"
INDEX 01 00:00:00
TRACK 02 AUDIO
TITLE "Рождённый убивать"
PERFORMER "Северный Флот"
INDEX 01 05:29:57
TRACK 03 AUDIO
TITLE "Вперёд и вверх"
PERFORMER "Северный Флот"
INDEX 01 09:34:16
TRACK 04 AUDIO
TITLE "Харон"
PERFORMER "Северный Флот"
INDEX 01 13:27:46
TRACK 05 AUDIO
TITLE "Старый крысолов"
PERFORMER "Северный Флот"
INDEX 01 18:38:46
TRACK 06 AUDIO
TITLE "Красные реки"
PERFORMER "Северный Флот"
INDEX 01 22:10:15
TRACK 07 AUDIO
TITLE "Стрелы"
PERFORMER "Северный Флот"
INDEX 01 25:41:45
TRACK 08 AUDIO
TITLE "Танцуй, король!"
PERFORMER "Северный Флот"
INDEX 01 29:23:54
TRACK 09 AUDIO
TITLE "Всё внутри"
PERFORMER "Северный Флот"
INDEX 01 33:47:02
info [Профиль]  [ЛС] 

3d1st

Пол: Пол:Муж

Стаж: 7 лет 2 месяца

Сообщений: 4

Армения
Рейтинг

post 28-Дек-2015 23:49 (спустя 1 год 1 месяц) [-]0[+]

[Цитировать] 

Народ, вопрос, то что скачать данный альбом можно только напрямую по идентификатору торрента это баг или из - за того что в анонсах находится?

_________________
**9mm<<3d1st>>7.62**
info [Профиль]  [ЛС] 

vintenkoa

Пол: Пол:Муж

Стаж: 2 года 11 месяцев

Сообщений: 15

Россия
Рейтинг

post 29-Дек-2015 06:16 (спустя 6 часов) [-]0[+]

[Цитировать] 

3d1st писал(а):

Народ, вопрос, то что скачать данный альбом можно только напрямую по идентификатору торрента это баг или из - за того что в анонсах находится?
В анонсах)
info [Профиль]  [ЛС] 

CrazySmall

Пол: Пол:Муж

Стаж: 6 лет 9 месяцев

Сообщений: 281

СССР
Рейтинг

post 01-Янв-2016 19:54 (спустя 3 дня) [-]0[+]

[Цитировать] 

Для проверки раздачи отпишитесь модераторам музыкального раздела.

_________________
Сто процентную гарантию дает только контрольный выстрел в голову.
info [Профиль]  [ЛС] 
Показать сообщения:    
Ответить на тему

Текущее время: 05-Дек 18:28

Часовой пояс: GMT + 4



Вы не можете начинать темы
Вы не можете отвечать на сообщения
Вы не можете редактировать свои сообщения
Вы не можете удалять свои сообщения
Вы не можете голосовать в опросах
Вы не можете прикреплять файлы к сообщениям
Вы не можете скачивать файлы