Ошибка

Самолеты: Огонь и вода / Planes: Fire and Rescue (Роберт Ганнавей) [2014, мультфильм, комедия, приключения, семейный, BDRip 1080p 3D ]

Ответить на тему
 
Автор Сообщение

koss555

Пол: Пол:Муж

Стаж: 4 года 11 месяцев

Сообщений: 1549

Россия
Рейтинг

post 16-Ноя-2014 23:17 0[+]

[Цитировать] 

Самолеты: Огонь и вода / Planes: Fire and Rescue
«When others fly out, heroes fly in»

Год выпуска: 2014
Страна: США
Жанр: мультфильм, комедия, приключения, семейный
Продолжительность: 01:23:38
Перевод: Дублированное [лицензия]
Субтитры: Russian,English

Режиссер: Роберт Ганнавей
Сценарий: Джеффри М. Ховард, Роберт Ганнавей, Клэй Холл
Продюсер: Феррелл Баррон, Джон Лассетер
Композитор: Марк Манчина
Монтаж: Дэн Молина

В ролях: Дейн Кук / Dane Cook (Dusty Crophopper, озвучка), Эд Харрис / Ed Harris (Blade Ranger, озвучка), Джули Боуэн / Julie Bowen (Lil' Dipper, озвучка), Кертис Армстронг / Curtis Armstrong (Maru, озвучка), Джон Майкл Хиггинс / John Michael Higgins (Cad, озвучка), Хэл Холбрук / Hal Holbrook (Mayday, озвучка), Уэс Стьюди / Wes Studi (Windlifter, озвучка), Брэд Гэррет / Brad Garrett (Chug, озвучка)


Описание: Самолетик Дасти, который стал уже легендой воздушных гонок, вскоре узнает, что его двигатель сильно повреждён, и он никогда не может больше участвовать в скоростных воздушных гонках. Дасти ищет себе новое занятие и знакомится с мужественной пожарно-спасательной командой, которой руководит ветеран авиации вертолёт по имени Ренждер. Узнав, насколько тяжела и опасна работа пожарной авиации, Дасти поймёт, что такое настоящий героизм и самоотдача, и сам захочет стать спасателем.

Бюджет: $50 000 000
Сборы в США: $59 165 787
Сборы в мире: + $80 182 000 = $139 347 787 сборы
Сборы в России: $6 525 273
Зрители: Россия 1.22 млн
Премьера (мир): 15 июля 2014
Премьера (РФ): 21 августа 2014, «WDSSPR» 3D
Релиз на DVD: 18 ноября 2014 «Уолт Дисней Компани СНГ»
Релиз на Blu-Ray: 18 ноября 2014«Уолт Дисней Компани СНГ»
Рейтинг MPAA: Рекомендуется присутствие родителей



Качество: BDRip 1080p 3D
Формат: MKV
Видео кодек: AVC
Аудио кодеk: AC3
Видео: 1920x1080 (16:9), 23.976 fps, AVC, 12.5 Mbps
Аудио: Аудио #1Russian : AC3, 640 Kbps, 48.0 KHz, 6 ch
Аудио #2 English : DTS, 1 510 Kbps, 48.0 KHz, 6 ch
· Создавая локации для фильма, аниматоры черпали вдохновение в красотах национальных парков США, включая Йосемити и Йеллоустоун: Отель Old Faithful Inn в Национальном парке Йеллоустоун послужил прототипом базы отдыха;

General
Complete name : Самолеты Огонь и вода.2014.D.BDRip.1080p.3D.mkv
Format : Matroska
File size : 8.55 GiB
Duration : 1h 23mn
Overall bit rate : 14.6 Mbps
Movie name : Самолеты.Огонь.и.вода.2014.3D.BDRip.HBSB.1080p
Encoded date : UTC 2010-02-22 21:41:31
Writing application : mkvmerge v5.8.0 ('No Sleep / Pillow') built on Nov 13 2012 19:43:22
Writing library : libebml v1.3.0 + libmatroska v1.4.0
Cover : Yes / Yes

Video
ID : 1
Format : AVC
Format/Info : Advanced Video Codec
Format profile : High@L4.1
Format settings, CABAC : Yes
Format settings, ReFrames : 4 frames
Muxing mode : Container profile=Unknown@4.1
Codec ID : V_MPEG4/ISO/AVC
Duration : 1h 23mn
Bit rate : 12.5 Mbps
Width : 1 920 pixels
Height : 1 080 pixels
Display aspect ratio : 16:9
Frame rate : 23.976 fps
Color space : YUV
Chroma subsampling : 4:2:0
Bit depth : 8 bits
Scan type : Progressive
Bits/(Pixel*Frame) : 0.251
Stream size : 7.13 GiB (83%)
Title : Самолеты.Огонь.и.вода.2014.3D.BDRip.HBSB.1080p
Writing library : x264 core 142 r2389 956c8d8
Encoding settings : cabac=1 / ref=4 / deblock=1:-3:-3 / analyse=0x3:0x113 / me=umh / subme=10 / psy=1 / psy_rd=1.00:0.00 / mixed_ref=1 / me_range=32 / chroma_me=1 / trellis=2 / 8x8dct=1 / cqm=0 / deadzone=21,11 / fast_pskip=0 / chroma_qp_offset=-4 / threads=6 / lookahead_threads=1 / sliced_threads=0 / nr=0 / decimate=0 / interlaced=0 / bluray_compat=0 / constrained_intra=0 / bframes=6 / b_pyramid=2 / b_adapt=2 / b_bias=0 / direct=3 / weightb=1 / open_gop=0 / weightp=2 / keyint=250 / keyint_min=23 / scenecut=40 / intra_refresh=0 / rc=2pass / mbtree=0 / bitrate=12480 / ratetol=1.0 / qcomp=0.80 / qpmin=0 / qpmax=69 / qpstep=4 / cplxblur=20.0 / qblur=0.5 / frame-packing=3 / ip_ratio=1.30 / pb_ratio=1.30 / aq=2:0.90

Audio #1
ID : 2
Format : AC-3
Format/Info : Audio Coding 3
Mode extension : CM (complete main)
Codec ID : A_AC3
Duration : 1h 23mn
Bit rate mode : Constant
Bit rate : 640 Kbps
Channel(s) : 6 channels
Channel positions : Front: L C R, Side: L R, LFE
Sampling rate : 48.0 KHz
Bit depth : 16 bits
Stream size : 383 MiB (4%)
Title : Дубляж
Language : Russian

Audio #2
ID : 3
Format : DTS
Format/Info : Digital Theater Systems
Codec ID : A_DTS
Duration : 1h 23mn
Bit rate mode : Constant
Bit rate : 1 510 Kbps
Channel(s) : 6 channels
Channel positions : Front: L C R, Side: L R, LFE
Sampling rate : 48.0 KHz
Bit depth : 24 bits
Stream size : 903 MiB (10%)
Title : DTS

Text #1
ID : 4
Format : UTF-8
Codec ID : S_TEXT/UTF8
Codec ID/Info : UTF-8 Plain Text
Title : Форс.
Language : Russian

Text #2
ID : 5
Format : UTF-8
Codec ID : S_TEXT/UTF8
Codec ID/Info : UTF-8 Plain Text
Language : Russian

Text #3
ID : 6
Format : VobSub
Codec ID : S_VOBSUB
Codec ID/Info : The same subtitle format used on DVDs
Title : English (3D PGS)

Menu
00:00:00.000 : :1 - 0:00:00
00:03:27.790 : :2 - 0:03:27
00:07:48.593 : :3 - 0:07:48
00:12:36.005 : :4 - 0:12:36
00:17:38.849 : :5 - 0:17:38
00:22:55.165 : :6 - 0:22:55
00:27:45.288 : :7 - 0:27:45
00:32:37.205 : :8 - 0:32:37
00:35:24.789 : :9 - 0:35:24
00:38:31.017 : :10 - 0:38:31
00:41:38.287 : :11 - 0:41:38
00:47:21.046 : :12 - 0:47:21
00:55:00.714 : :13 - 0:55:00
00:57:29.028 : :14 - 0:57:29
01:00:33.880 : :15 - 1:00:33
01:05:22.710 : :16 - 1:05:22
01:09:07.685 : :17 - 1:09:07
01:13:55.264 : :18 - 1:13:55
01:23:38.263 : :19 - 1:23:38
info [Профиль]  [ЛС] 

post 16-Ноя-2014 23:18 (спустя 28 секунд) [-]0[+]

Топик был перенесен из форума Оформление раздач (Кинематограф) в форум Новинки (3D)

koss555
 

masikpasik

Стаж: 7 лет 2 месяца

Сообщений: 106

Предупреждений: 5

Украина
Рейтинг

post 21-Ноя-2014 19:18 (спустя 4 дня) [-]0[+]

[Цитировать] 

Отличный мультик очень понравился, добрый, душевный. У кого слабый интернет, можете для начала посмотреть тут ... и оценить качество раздачи и потом принять решение стоит качать или нет.
 !  BZzz:
ссылки на сторонние ресурсы запрещены!

_________________
МАкс
info [Профиль]  [ЛС] 

post 13-Май-2015 13:52 (спустя 5 месяцев 21 день) [-]0[+]

Топик был перенесен из форума Новинки (3D) в форум 3D

BZzz
 
Показать сообщения:    
Ответить на тему

Текущее время: 08-Дек 02:22

Часовой пояс: GMT + 4



Вы не можете начинать темы
Вы не можете отвечать на сообщения
Вы не можете редактировать свои сообщения
Вы не можете удалять свои сообщения
Вы не можете голосовать в опросах
Вы не можете прикреплять файлы к сообщениям
Вы не можете скачивать файлы