Ошибка

(Hard rock) Heaven's Basement - Filthy Empire (2013) (FLAC) (tracks+.cue), lossless

Ответить на тему
 
Автор Сообщение

CADOMA3OXuCT

Пол: Пол:Муж

Стаж: 7 лет 1 месяц

Сообщений: 32

СССР
Рейтинг

post 11-Ноя-2014 23:04 0[+]

[Цитировать] 

Heaven's Basement - Filthy Empire

Жанр: Hard Rock
Происхождение:United Kingdom
Год издания: 2013
Страна-производитель: United Kingdom
Лейбл: Red Bull Records
Тип релиза: (tracks+.cue)
Аудио кодек: (FLAC)
Битрейт аудио: lossless
Продолжительность: 40:31.22
Полиграфия: отсутствует
Треклист:
01. Welcome Home 3:18
02. Fire, Fire 4:15
03. Nothing Left To Lose 3:42
04. When The Lights Go Out In London 3:20
05. I Am Electric 2:58
06. The Long Goodbye 3:43
07. Heartbreaking Son of a Bitch 3:00
08. Be Somebody 3:43
09. Can't Let Go 3:58
10. The Price We Pay 5:25
11. Jump Back 3:09
12. Executioner's Day 4:52
Exact Audio Copy V1.0 beta 3 from 29. August 2011

EAC extraction logfile from 4. February 2013, 21:40

Heaven's Basement / Filthy Empire

Used drive : TSSTcorpCDDVDW SH-S223C Adapter: 0 ID: 0

Read mode : Secure
Utilize accurate stream : Yes
Defeat audio cache : Yes
Make use of C2 pointers : No

Read offset correction : 697
Overread into Lead-In and Lead-Out : No
Fill up missing offset samples with silence : Yes
Delete leading and trailing silent blocks : No
Null samples used in CRC calculations : Yes
Used interface : Native Win32 interface for Win NT & 2000
Gap handling : Appended to previous track

Used output format : User Defined Encoder
Selected bitrate : 128 kBit/s
Quality : High
Add ID3 tag : No
Command line compressor : C:\Program Files (x86)\FLAC\flac.exe
Additional command line options : -8 -V -T "ARTIST=%artist%" -T "TITLE=%title%" -T "ALBUM=%albumtitle%" -T "DATE=%year%" -T "TRACKNUMBER=%tracknr%" -T "GENRE=%genre%" -T "PERFORMER=%albuminterpret%" -T "COMPOSER=%composer%" %haslyrics%--tag-from-file=LYRICS="%lyricsfile%"%haslyrics% -T "ALBUMARTIST=%albumartist%" -T "DISCNUMBER=%cdnumber%" -T "TOTALDISCS=%totalcds%" -T "TOTALTRACKS=%numtracks%" -T "COMMENT=%comment%" %source% -o %dest%

TOC of the extracted CD

Track | Start | Length | Start sector | End sector
---------------------------------------------------------
1 | 0:00.00 | 3:17.38 | 0 | 14812
2 | 3:17.38 | 4:15.19 | 14813 | 33956
3 | 7:32.57 | 3:42.07 | 33957 | 50613
4 | 11:14.64 | 3:20.01 | 50614 | 65614
5 | 14:34.65 | 2:58.04 | 65615 | 78968
6 | 17:32.69 | 3:43.24 | 78969 | 95717
7 | 21:16.18 | 3:00.01 | 95718 | 109218
8 | 24:16.19 | 3:42.65 | 109219 | 125933
9 | 27:59.09 | 3:58.30 | 125934 | 143813
10 | 31:57.39 | 5:24.43 | 143814 | 168156
11 | 37:22.07 | 3:09.15 | 168157 | 182346
12 | 40:31.22 | 4:51.67 | 182347 | 204238

Track 1

Filename D:\EAC Rips\Heaven's Basement - Filthy Empire (2013) [FLAC]\01 - Welcome Home.wav

Pre-gap length 0:00:02.00

Peak level 97.7 %
Extraction speed 0.4 X
Track quality 99.9 %
Test CRC BD2BE5BF
Copy CRC BD2BE5BF
Track not present in AccurateRip database
Copy OK

Track 2

Filename D:\EAC Rips\Heaven's Basement - Filthy Empire (2013) [FLAC]\02 - Fire, Fire.wav

Peak level 97.7 %
Extraction speed 2.2 X
Track quality 100.0 %
Test CRC D94C56AD
Copy CRC D94C56AD
Track not present in AccurateRip database
Copy OK

Track 3

Filename D:\EAC Rips\Heaven's Basement - Filthy Empire (2013) [FLAC]\03 - Nothing Left To Lose.wav

Peak level 97.7 %
Extraction speed 0.5 X
Track quality 99.9 %
Test CRC 006E70FC
Copy CRC 006E70FC
Track not present in AccurateRip database
Copy OK

Track 4

Filename D:\EAC Rips\Heaven's Basement - Filthy Empire (2013) [FLAC]\04 - When The Lights Go Out In London.wav

Peak level 97.7 %
Extraction speed 2.5 X
Track quality 100.0 %
Test CRC 59D6C38C
Copy CRC 59D6C38C
Track not present in AccurateRip database
Copy OK

Track 5

Filename D:\EAC Rips\Heaven's Basement - Filthy Empire (2013) [FLAC]\05 - I Am Electric.wav

Peak level 97.7 %
Extraction speed 2.6 X
Track quality 100.0 %
Test CRC 97EBA400
Copy CRC 97EBA400
Track not present in AccurateRip database
Copy OK

Track 6

Filename D:\EAC Rips\Heaven's Basement - Filthy Empire (2013) [FLAC]\06 - The Long Goodbye.wav

Peak level 97.7 %
Extraction speed 2.8 X
Track quality 100.0 %
Test CRC 29B1CAD8
Copy CRC 29B1CAD8
Track not present in AccurateRip database
Copy OK

Track 7

Filename D:\EAC Rips\Heaven's Basement - Filthy Empire (2013) [FLAC]\07 - Heartbreaking Son of a Bitch.wav

Peak level 97.7 %
Extraction speed 2.8 X
Track quality 100.0 %
Test CRC EA31B42E
Copy CRC EA31B42E
Track not present in AccurateRip database
Copy OK

Track 8

Filename D:\EAC Rips\Heaven's Basement - Filthy Empire (2013) [FLAC]\08 - Be Somebody.wav

Peak level 97.7 %
Extraction speed 3.0 X
Track quality 100.0 %
Test CRC FD27F543
Copy CRC FD27F543
Track not present in AccurateRip database
Copy OK

Track 9

Filename D:\EAC Rips\Heaven's Basement - Filthy Empire (2013) [FLAC]\09 - Can't Let Go.wav

Peak level 97.7 %
Extraction speed 0.5 X
Track quality 99.9 %
Test CRC 2BF058E8
Copy CRC 2BF058E8
Track not present in AccurateRip database
Copy OK

Track 10

Filename D:\EAC Rips\Heaven's Basement - Filthy Empire (2013) [FLAC]\10 - The Price We Pay.wav

Peak level 97.7 %
Extraction speed 3.5 X
Track quality 100.0 %
Test CRC AED0CC86
Copy CRC AED0CC86
Track not present in AccurateRip database
Copy OK

Track 11

Filename D:\EAC Rips\Heaven's Basement - Filthy Empire (2013) [FLAC]\11 - Jump Back.wav

Peak level 97.7 %
Extraction speed 0.4 X
Track quality 99.9 %
Test CRC 82284F11
Copy CRC 82284F11
Track not present in AccurateRip database
Copy OK

Track 12

Filename D:\EAC Rips\Heaven's Basement - Filthy Empire (2013) [FLAC]\12 - Executioner's Day.wav

Peak level 97.7 %
Extraction speed 3.7 X
Track quality 100.0 %
Test CRC FFD88CA0
Copy CRC FFD88CA0
Track not present in AccurateRip database
Copy OK

None of the tracks are present in the AccurateRip database

No errors occurred

End of status report

==== Log checksum 21AAEB72CE9A2B9DB1127813A12DD18244D72B7BCAA27E8128E04AE05851DBD5 ====

 
Содержимое log-файла.
 
REM GENRE "Hard Rock"
REM DATE 2013
REM DISCID B40AA30C
REM COMMENT "ExactAudioCopy v1.0b3"
PERFORMER "Heaven's Basement"
TITLE "Filthy Empire"
FILE "01 - Welcome Home.flac" WAVE
TRACK 01 AUDIO
TITLE "Welcome Home"
PERFORMER "Heaven's Basement"
ISRC USP6L1200104
INDEX 01 00:00:00
FILE "02 - Fire, Fire.flac" WAVE
TRACK 02 AUDIO
TITLE "Fire, Fire"
PERFORMER "Heaven's Basement"
ISRC USP6L1200105
INDEX 01 00:00:00
FILE "03 - Nothing Left To Lose.flac" WAVE
TRACK 03 AUDIO
TITLE "Nothing Left To Lose"
PERFORMER "Heaven's Basement"
ISRC USP6L1200102
INDEX 01 00:00:00
FILE "04 - When The Lights Go Out In London.flac" WAVE
TRACK 04 AUDIO
TITLE "When The Lights Go Out In London"
PERFORMER "Heaven's Basement"
ISRC USP6L1200103
INDEX 01 00:00:00
FILE "05 - I Am Electric.flac" WAVE
TRACK 05 AUDIO
TITLE "I Am Electric"
PERFORMER "Heaven's Basement"
ISRC USP6L1200106
INDEX 01 00:00:00
FILE "06 - The Long Goodbye.flac" WAVE
TRACK 06 AUDIO
TITLE "The Long Goodbye"
PERFORMER "Heaven's Basement"
ISRC USP6L1200107
INDEX 01 00:00:00
FILE "07 - Heartbreaking Son of a Bitch.flac" WAVE
TRACK 07 AUDIO
TITLE "Heartbreaking Son of a Bitch"
PERFORMER "Heaven's Basement"
ISRC USP6L1200108
INDEX 01 00:00:00
FILE "08 - Be Somebody.flac" WAVE
TRACK 08 AUDIO
TITLE "Be Somebody"
PERFORMER "Heaven's Basement"
ISRC USP6L1200109
INDEX 01 00:00:00
FILE "09 - Can't Let Go.flac" WAVE
TRACK 09 AUDIO
TITLE "Can't Let Go"
PERFORMER "Heaven's Basement"
ISRC USP6L1200109
INDEX 01 00:00:00
FILE "10 - The Price We Pay.flac" WAVE
TRACK 10 AUDIO
TITLE "The Price We Pay"
PERFORMER "Heaven's Basement"
ISRC USP6L1200111
INDEX 01 00:00:00
FILE "11 - Jump Back.flac" WAVE
TRACK 11 AUDIO
TITLE "Jump Back"
PERFORMER "Heaven's Basement"
ISRC USP6L1200112
INDEX 01 00:00:00
FILE "12 - Executioner's Day.flac" WAVE
TRACK 12 AUDIO
TITLE "Executioner's Day"
PERFORMER "Heaven's Basement"
ISRC USP6L1200113
INDEX 01 00:00:00
info [Профиль]  [ЛС] 
Показать сообщения:    
Ответить на тему

Текущее время: 04-Дек 12:17

Часовой пояс: GMT + 4



Вы не можете начинать темы
Вы не можете отвечать на сообщения
Вы не можете редактировать свои сообщения
Вы не можете удалять свои сообщения
Вы не можете голосовать в опросах
Вы не можете прикреплять файлы к сообщениям
Вы не можете скачивать файлы