Ошибка

Раз на раз не приходится (Ара Габриелян) [1987 г., Комедия, DVBRip ,H.264]

Ответить на тему
 
Автор Сообщение

Mr West

Пол: Пол:Муж

Стаж: 2 года 1 месяц

Сообщений: 165

Россия
Рейтинг

post 05-Ноя-2014 23:33 2[+]

[Цитировать] 

Раз на раз не приходится

Год выпуска: 1987
Страна: СССР
Жанр: Комедия
Продолжительность: 01:12:37
Перевод: оригинал
Режиссер:Ара Габриелян
В ролях:
Армен Джигарханян, Леонид Куравлев, Борислав Брондуков, Любовь Полищук, Виктор Кремлев, Владимир Бурлаков, Виталий Варганов, Анатолий Веденкин, Мария Виноградова, Борис Иванов, Капитолина Ильенко, Нина Крачковская, Александр Кудинов, Татьяна Митрушина, Лада Фетисова, Владимир Ферапонтов
Описание:
Бригада горе-строителей занята сносом старых зданий. В стене дома они находят клад из золотых слитков. Самый старший и авторитетный «справедливо» делит сокровище на троих, строго приказывая всем держать язык за зубами. Но что делать дальше? Незадачливые кладоискатели теряют сон и покой: куда спрятать клад, что делать с золотом, как вопреки закону присвоить его себе...
Качество: DVBRip
Формат: MKV
Видео кодек: V_MPEG4/ISO/AVC
Аудио кодек: MP2, 2.0 ch
Видео: 720x376, ~2425 Кбит/с
Битрейт аудио:: 192 Кбит/с
Общее
Уникальный идентификатор : 183898525585434438044268506800746214462 (0x8A599155CB4E4A6F849111E14331343E)
Полное имя : D:\mkv\Раз на раз не приходится.mkv
Формат : Matroska
Версия формата : Version 2
Размер файла : 1,33 Гбайт
Продолжительность : 1 ч. 12 м.
Общий поток : 2619 Кбит/сек
Дата кодирования : UTC 2014-11-04 03:44:39
Программа кодирования : mkvmerge v5.8.0 ('No Sleep / Pillow') built on Sep 2 2012 15:37:04
Библиотека кодирования : libebml v1.2.3 + libmatroska v1.3.0

Видео
Идентификатор : 1
Формат : AVC
Формат/Информация : Advanced Video Codec
Профиль формата : [url=mailto:High@L3.1]High@L3.1[/url]
Параметр CABAC формата : Да
Параметр ReFrames формата : 8 кадров
Идентификатор кодека : V_MPEG4/ISO/AVC
Продолжительность : 1 ч. 12 м.
Битрейт : 2425 Кбит/сек
Ширина : 720 пикселей
Высота : 376 пикселей
Соотношение сторон : 1,915
Частота кадров : 25,000 кадров/сек
Цветовое пространство : YUV
Субдискретизация насыщенности : 4:2:0
Битовая глубина : 8 бит
Тип развёртки : Прогрессивная
Бит/(Пиксели*Кадры) : 0.358
Размер потока : 1,20 Гбайт (91%)
Библиотека кодирования : x264 core 125 r2208 d9d2288
Настройки программы : cabac=1 / ref=8 / deblock=1:-1:-1 / analyse=0x3:0x133 / me=umh / subme=7 / psy=1 / psy_rd=1.00:0.10 / mixed_ref=1 / me_range=16 / chroma_me=1 / trellis=2 / 8x8dct=1 / cqm=0 / deadzone=21,11 / fast_pskip=0 / chroma_qp_offset=-3 / threads=3 / lookahead_threads=1 / sliced_threads=0 / nr=0 / decimate=1 / interlaced=0 / bluray_compat=0 / constrained_intra=0 / bframes=2 / b_pyramid=2 / b_adapt=2 / b_bias=0 / direct=3 / weightb=1 / open_gop=0 / weightp=2 / keyint=250 / keyint_min=25 / scenecut=40 / intra_refresh=0 / rc_lookahead=50 / rc=2pass / mbtree=1 / bitrate=2425 / ratetol=1.0 / qcomp=0.60 / qpmin=0 / qpmax=69 / qpstep=4 / cplxblur=20.0 / qblur=0.5 / ip_ratio=1.40 / aq=1:1.00
Default : Да
Forced : Нет

Аудио
Идентификатор : 2
Формат : MPEG Audio
Версия формата : Version 1
Профиль формата : Layer 2
Идентификатор кодека : A_MPEG/L2
Идентификатор кодека/Подсказка : MP2
Продолжительность : 1 ч. 12 м.
Вид битрейта : Постоянный
Битрейт : 192 Кбит/сек
Каналы : 1 канал
Частота : 48,0 КГц
Метод сжатия : С потерями
Размер потока : 99,6 Мбайт (7%)
Default : Да
Forced : Нет
Скриншоты:
http://i.imgur.com/pzNWUqb.jpg http://i.imgur.com/IQqi9sj.jpg http://i.imgur.com/GskdT48.jpg http://i.imgur.com/IrGtlUL.jpg http://i.imgur.com/55mRPNo.jpg http://i.imgur.com/ipDzqK1.jpg http://i.imgur.com/CZiGgLn.jpg 
info [Профиль]  [ЛС] 

Tariel

Пол: Пол:Муж

Стаж: 5 лет 1 месяц

Сообщений: 61

СССР
Рейтинг

post 07-Ноя-2014 06:47 (спустя 1 день 7 часов) [-]1[+]

[Цитировать] 

Гениальный фильм! Школоте не понять!

_________________
info [Профиль]  [ЛС] 
Показать сообщения:    
Ответить на тему

Текущее время: 06-Дек 14:14

Часовой пояс: GMT + 4



Вы не можете начинать темы
Вы не можете отвечать на сообщения
Вы не можете редактировать свои сообщения
Вы не можете удалять свои сообщения
Вы не можете голосовать в опросах
Вы не можете прикреплять файлы к сообщениям
Вы не можете скачивать файлы