Ошибка

Облачно, возможны осадки в виде фрикаделек / Cloudy with a Chance of Meatballs (Дэн Скэнлон)[2009, семейный, мультфильм BDRip 720p]

Ответить на тему
 
Автор Сообщение

Sweetie Dragon

Пол: Пол:Муж

Стаж: 4 года 1 месяц

Сообщений: 67

Россия
Рейтинг

post 31-Окт-2014 13:13 0[+]

[Цитировать] 

Облачно, возможны осадки в виде фрикаделек / Cloudy with a Chance of Meatballs



Год выпуска: 2009
Страна: США
Жанр: семейный, мультфильм
Продолжительность: 01:26:09
Перевод: Профессиональный (дублированный)
Режиссер:
  • Фил Лорд
  • Крис Миллер
В ролях:
  • Билл Хадер
  • Анна Фэрис
  • Джеймс Каан
  • Энди Сэмберг
  • Брюс Кэмпбелл
  • Мистер Ти
  • Бобби Дж. Томпсон
  • Бенджамин Брэтт
  • Нил Патрик Харрис
  • Эл Рокер

Описание: Ученый пытается избавить беднейшую часть человечества от голода, но что-то у него идет не так, и в результате с неба начинают выпадать осадки в виде… еды.

Качество: BDRip 720p
Формат: MKV
Видео кодек: AVC
Аудио кодек: AC-3
Видео: AVC, 1280x544 (2.35:1); 5 117 Kbps; 23,976 fps; 0,295 bpp
Аудио №1: Russian; AC3; 448 Kbps; 48.0 KHz; 6 ch
Аудио №2: English; DTS; 1536 Kbps; 48.0 KHz; 6 ch
Аудио №3: English; AC3; 192 Kbps; 48.0 KHz; 2 ch (Commentary Track)


General
Complete name : D:\BDRip 720p\Cloudy.With.A.Chance.Of.Meatballs.2009.720p.BluRay.x264.AVC.AC3.DTS-WiKi.mkv
Format : Matroska
File size : 4.66 GiB
Duration : 1h 29mn
Overall bit rate : 7 414 Kbps
Encoded date : UTC 2009-12-08 15:24:15
Writing application : mkvmerge v2.9.9 ('Tutu') built on Nov 25 2009 21:13:32
Writing library : libebml v0.7.9 + libmatroska v0.8.1

Video
ID : 1
Format : AVC
Format/Info : Advanced Video Codec
Format profile : High@L4.1
Format settings, CABAC : Yes
Format settings, ReFrames : 11 frames
Muxing mode : Container profile=Unknown@4.1
Codec ID : V_MPEG4/ISO/AVC
Duration : 1h 29mn
Bit rate : 5 117 Kbps
Nominal bit rate : 5 263 Kbps
Width : 1 280 pixels
Height : 544 pixels
Display aspect ratio : 2.35:1
Frame rate : 23.976 fps
Resolution : 24 bits
Colorimetry : 4:2:0
Scan type : Progressive
Bits/(Pixel*Frame) : 0.306
Stream size : 3.21 GiB (69%)
Title : AVC- WiKi
Writing library : x264 core 68 r1179M 96e2229
Encoding settings : cabac=1 / ref=11 / deblock=1:-1:-1 / analyse=0x3:0x133 / me=umh / subme=9 / psy_rd=1.0:0.0 / mixed_ref=1 / me_range=48 / chroma_me=1 / trellis=2 / 8x8dct=1 / cqm=0 / deadzone=21,11 / chroma_qp_offset=-2 / threads=12 / nr=0 / decimate=1 / mbaff=0 / bframes=5 / b_pyramid=1 / b_adapt=2 / b_bias=0 / direct=1 / wpredb=1 / keyint=250 / keyint_min=25 / scenecut=40 / rc=2pass / bitrate=5263 / ratetol=1.0 / qcomp=0.60 / qpmin=10 / qpmax=51 / qpstep=4 / cplxblur=20.0 / qblur=0.5 / vbv_maxrate=50000 / vbv_bufsize=50000 / ip_ratio=1.40 / pb_ratio=1.30 / aq=0
Language : English

Audio #1
ID : 2
Format : AC-3
Format/Info : Audio Coding 3
Codec ID : A_AC3
Duration : 1h 29mn
Bit rate mode : Constant
Bit rate : 448 Kbps
Channel(s) : 6 channels
Channel positions : Front: L C R, Surround: L R, LFE
Sampling rate : 48.0 KHz
Stream size : 288 MiB (6%)
Title : Russian AC3 5.1 CH @ 448 kbps
Language : Russian

Audio #2
ID : 3
Format : DTS
Format/Info : Digital Theater Systems
Codec ID : A_DTS
Duration : 1h 29mn
Bit rate mode : Constant
Bit rate : 1 510 Kbps
Channel(s) : 6 channels
Channel positions : Front: L C R, Surround: L R, LFE
Sampling rate : 48.0 KHz
Resolution : 24 bits
Stream size : 971 MiB (20%)
Title : English DTS 5.1 CH @ 1.5M
Language : English

Audio #3
ID : 4
Format : AC-3
Format/Info : Audio Coding 3
Format profile : Dolby Digital
Codec ID : A_AC3
Duration : 1h 29mn
Bit rate mode : Constant
Bit rate : 192 Kbps
Channel(s) : 2 channels
Channel positions : L R
Sampling rate : 48.0 KHz
Stream size : 123 MiB (3%)
Title : English Commentary AC3 @ 192 Kbps
Language : English
info [Профиль]  [ЛС] 

post 31-Окт-2014 14:09 (спустя 55 минут) [-]0[+]

Топик был перенесен из форума Анонсы в форум Мультфильмы (HD Video)

BZzz
 
Показать сообщения:    
Ответить на тему

Текущее время: 09-Дек 19:39

Часовой пояс: GMT + 4



Вы не можете начинать темы
Вы не можете отвечать на сообщения
Вы не можете редактировать свои сообщения
Вы не можете удалять свои сообщения
Вы не можете голосовать в опросах
Вы не можете прикреплять файлы к сообщениям
Вы не можете скачивать файлы